Once Upon a Time in China 1991 x264 720p Esub BluRay Dual Audio Hindi Chinese Sadeemrdp GOPI SAHI


Once Upon a Time in China (1991)

Wong Fei Hung (original title)

Late 1800s Foshan, Guangdong: Wong Fei Hung/Jet Li trains men in martial arts to help defend against foreign powers already holding Hong Kong and Macau. He looks after cute 13th Aunt, who's just returned from England. Lots of fight scenes.

Director:

Hark Tsui

Writers:

Yiu-Ming Leung, Elsa Tang (as Pik-yin Tang) |2 more credits »

7.3/10



Format                         : Matroska
Format version                 : Version 4
File size                      : 1.03 GiB
Duration                       : 2 h 14 min
Overall bit rate               : 1 099 kb/s
Movie name                     : Once Upon a Time in China 1991 UNCUT GOPI SAHI
Encoded date                   : UTC 2020-05-19 16:55:17
Writing application            : mkvmerge v46.0.0 ('No Deeper Escape') 32-bit
Writing library                : libebml v1.3.10 + libmatroska v1.5.2

Video
ID                             : 1
Format                         : AVC
Format/Info                    : Advanced Video Codec
Format profile                 : [email protected]
Format settings                : CABAC / 5 Ref Frames
Format settings, CABAC         : Yes
Format settings, Reference fra : 5 frames
Codec ID                       : V_MPEG4/ISO/AVC
Duration                       : 2 h 14 min
Bit rate                       : 899 kb/s
Width                          : 1 280 pixels
Height                         : 536 pixels
Display aspect ratio           : 2.40:1
Frame rate mode                : Constant
Frame rate                     : 23.976 (24000/1001) FPS
Color space                    : YUV
Chroma subsampling             : 4:2:0
Bit depth                      : 8 bits
Scan type                      : Progressive
Bits/(Pixel*Frame)             : 0.055
Stream size                    : 865 MiB (82%)
Title                          : GOPI SAHI
Writing library                : x264 core 157 r2935 545de2f

Audio #1
ID                             : 2
Format                         : AAC LC
Format/Info                    : Advanced Audio Codec Low Complexity
Codec ID                       : A_AAC-2
Duration                       : 2 h 14 min
Bit rate                       : 96.0 kb/s
Channel(s)                     : 2 channels
Channel layout                 : L R
Sampling rate                  : 44.1 kHz
Frame rate                     : 43.066 FPS (1024 SPF)
Compression mode               : Lossy
Delay relative to video        : -23 ms
Stream size                    : 92.7 MiB (9%)
Title                          : GOPI SAHI
Language                       : Hindi
Default                        : Yes
Forced                         : No

Audio #2
ID                             : 3
Format                         : AAC LC
Format/Info                    : Advanced Audio Codec Low Complexity
Codec ID                       : A_AAC-2
Duration                       : 2 h 14 min
Bit rate                       : 96.0 kb/s
Channel(s)                     : 2 channels
Channel layout                 : L R
Sampling rate                  : 48.0 kHz
Frame rate                     : 46.875 FPS (1024 SPF)
Compression mode               : Lossy
Delay relative to video        : -21 ms
Stream size                    : 92.8 MiB (9%)
Title                          : GOPI SAHI
Language                       : Chinese
Default                        : No
Forced                         : No

Text
ID                             : 4
Format                         : VobSub
Muxing mode                    : zlib
Codec ID                       : S_VOBSUB
Codec ID/Info                  : Picture based subtitle format used on DVDs
Duration                       : 2 h 10 min
Bit rate                       : 7 917 b/s
Count of elements              : 1096
Stream size                    : 7.38 MiB (1%)
Title                          : https://www.gopisahi.in/
Language                       : English
Default                        : Yes
Forced                         : No

Menu
00:00:00.000                   : :Chapter 1
00:08:50.739                   : :Chapter 2
00:21:29.121                   : :Chapter 3
00:33:02.314                   : :Chapter 4
00:45:35.399                   : :Chapter 5
00:54:47.117                   : :Chapter 6
01:00:41.888                   : :Chapter 7
01:07:39.055                   : :Chapter 8
01:19:21.757                   : :Chapter 9
01:31:40.161                   : :Chapter 10
01:41:22.743                   : :Chapter 11
01:51:57.878                   : :Chapter 12
02:01:03.256                   : :Chapter 13
02:11:56.409                   : :Chapter 14






Post a Comment

0 Comments