Once Upon a Time in China II 1992 x264 720p Esub BluRay Dual Audio Hindi Chinese Sadeemrdp GOPI SAHI

Once Upon a Time in China II (1992)

Wong Fei Hung II: Nam yee tung chi keung (original title)

In the sequel to the Tsui Hark classic, Wong Fei-Hung faces The White Lotus society, a fanatical cult seeking to drive the Europeans out of China through violence, even attacking Chinese ... See full summary »

Director:

Hark Tsui

7.4/10
8,751


Traditional黃飛鴻之二男兒當自強
Simplified黄飞鸿之二男儿当自强
MandarinHuáng Fēihǒng Zhī Èr Nánér Dāng Zìqiáng
CantoneseWong4 Fei1-hung4 Zi1 Ji6 Naam4-ji4 Dong1 Zi6-koeng4
Directed byTsui Hark
Produced byTsui Hark
Ng See-yuen
Raymond Chow
Written byTsui Hark
Chan Tin-suen
Cheung Tan
StarringJet Li
Rosamund Kwan
Max Mok
Donnie Yen
Music byRichard Yuen
Johnny Yeung
Chow Gam-wing
CinematographyArthur Wong
Edited byMarco Mak
Angie Lam
Andy Chan
Production
company
Film Workshop
Golden Harvest
Paragon Films Ltd.
Distributed byGolden Harvest
Release date
  • 16 April 1992
Running time
113 minutes
CountryHong Kong
LanguageCantonese
Mandarin
English
Box officeHK$30,399,676[1]


Format                         : Matroska
Format version                 : Version 4
File size                      : 892 MiB
Duration                       : 1 h 53 min
Overall bit rate               : 1 099 kb/s
Movie name                     : Once Upon a Time in China II 1992 GOPI SAHI
Encoded date                   : UTC 2020-05-19 16:56:39
Writing application            : mkvmerge v46.0.0 ('No Deeper Escape') 32-bit
Writing library                : libebml v1.3.10 + libmatroska v1.5.2
Cover                          : Yes
Attachments                    : Cover.jpg

Video
ID                             : 1
Format                         : AVC
Format/Info                    : Advanced Video Codec
Format profile                 : [email protected]
Format settings                : CABAC / 5 Ref Frames
Format settings, CABAC         : Yes
Format settings, Reference fra : 5 frames
Codec ID                       : V_MPEG4/ISO/AVC
Duration                       : 1 h 53 min
Bit rate                       : 899 kb/s
Width                          : 1 280 pixels
Height                         : 536 pixels
Display aspect ratio           : 2.40:1
Frame rate mode                : Constant
Frame rate                     : 23.976 (24000/1001) FPS
Color space                    : YUV
Chroma subsampling             : 4:2:0
Bit depth                      : 8 bits
Scan type                      : Progressive
Bits/(Pixel*Frame)             : 0.055
Stream size                    : 729 MiB (82%)
Title                          : GOPI SAHI
Writing library                : x264 core 157 r2935 545de2f

Audio #1
ID                             : 2
Format                         : AAC LC
Format/Info                    : Advanced Audio Codec Low Complexity
Codec ID                       : A_AAC-2
Duration                       : 1 h 52 min
Bit rate                       : 96.0 kb/s
Channel(s)                     : 2 channels
Channel layout                 : L R
Sampling rate                  : 44.1 kHz
Frame rate                     : 43.066 FPS (1024 SPF)
Compression mode               : Lossy
Delay relative to video        : -23 ms
Stream size                    : 78.0 MiB (9%)
Title                          : GOPI SAHI
Language                       : Hindi
Default                        : Yes
Forced                         : No

Audio #2
ID                             : 3
Format                         : AAC LC
Format/Info                    : Advanced Audio Codec Low Complexity
Codec ID                       : A_AAC-2
Duration                       : 1 h 52 min
Bit rate                       : 96.0 kb/s
Channel(s)                     : 2 channels
Channel layout                 : L R
Sampling rate                  : 48.0 kHz
Frame rate                     : 46.875 FPS (1024 SPF)
Compression mode               : Lossy
Delay relative to video        : -21 ms
Stream size                    : 77.9 MiB (9%)
Title                          : GOPI SAHI
Language                       : Chinese
Default                        : No
Forced                         : No

Text
ID                             : 4
Format                         : VobSub
Muxing mode                    : zlib
Codec ID                       : S_VOBSUB
Codec ID/Info                  : Picture based subtitle format used on DVDs
Duration                       : 1 h 51 min
Bit rate                       : 8 865 b/s
Count of elements              : 1008
Stream size                    : 7.07 MiB (1%)
Title                          : GOPI SAHI
Language                       : English
Default                        : Yes
Forced                         : No

Menu
00:00:00.000                   : :Chapter 1
00:08:30.301                   : :Chapter 2
00:12:29.624                   : :Chapter 3
00:20:21.595                   : :Chapter 4
00:28:04.266                   : :Chapter 5
00:36:50.542                   : :Chapter 6
00:47:08.409                   : :Chapter 7
00:52:42.743                   : :Chapter 8
00:57:32.741                   : :Chapter 9
01:06:53.593                   : :Chapter 10
01:19:30.766                   : :Chapter 11
01:24:49.668                   : :Chapter 12
01:35:11.122                   : :Chapter 13
01:49:24.725                   : :Chapter 14