Peter Rabbit 2018 x264 720p Esub BluRay Dual Audio English Hindi GOPI SAHI

Peter Rabbit (2018)

Feature adaptation of Beatrix Potter's classic tale of a rebellious rabbit trying to sneak into a farmer's vegetable garden.

Director:

Will Gluck

Writers:

Rob Lieber (screen story by), Will Gluck (screen story by) |3 more credits »

6.6/10
32,810

Directed byWill Gluck
Produced by
  • Will Gluck
  • Zareh Nalbandian
Screenplay by
  • Rob Lieber
  • Will Gluck
Story by
  • Rob Lieber
  • Will Gluck
Based onCharacters
by Beatrix Potter
Starring
Music byDominic Lewis[1]
CinematographyPeter Menzies Jr.
Edited byChristian Gazal
Production
company
Distributed bySony Pictures Releasing
Release date
  • February 3, 2018 (The Grove)
  • February 9, 2018 (United States)
  • March 22, 2018 (Australia)
Running time
95 minutes[3]
Country
LanguageEnglish
Budget$50 million[5]
Box office$351.3 million[6]



Peter Rabbit 2018 x264 720p Esub BluRay Dual Audio English Hindi GOPI SAHI

Format : Matroska
Format version : Version 4 / Version 2
File size : 761 MiB
Duration : 1 h 34 min
Overall bit rate : 1 124 kb/s
Movie name : Peter Rabbit 2018 GOPI SAHI

Video
ID : 1
Format : AVC
Format/Info : Advanced Video Codec
Format profile : [email protected]
Format settings : CABAC / 5 Ref Frames
Format settings, CABAC : Yes
Format settings, ReFrames : 5 frames
Codec ID : V_MPEG4/ISO/AVC
Duration : 1 h 34 min
Bit rate : 899 kb/s
Width : 1 280 pixels
Height : 534 pixels
Display aspect ratio : 2.40:1
Frame rate mode : Constant
Frame rate : 23.976 (24000/1001) FPS
Color space : YUV
Chroma subsampling : 4:2:0
Bit depth : 8 bits
Scan type : Progressive
Bits/(Pixel*Frame) : 0.055
Stream size : 609 MiB (80%)
Title : GOPI SAHI
Writing library : x264 core 148

Audio #1
Format : AAC
Format/Info : Advanced Audio Codec
Duration : 1 h 34 min
Bit rate : 96.0 kb/s
Channel(s) : 2 channels
Channel positions : Front: L R
Sampling rate : 48.0 kHz
Frame rate : 46.875 FPS (1024 SPF)
Compression mode : Lossy
Delay relative to video : -21 ms
Stream size : 65.3 MiB (9%)
Title : GOPI SAHI
Language : Hindi

Audio #2
Format : AAC
Format/Info : Advanced Audio Codec
Duration : 1 h 34 min
Bit rate : 96.0 kb/s
Channel(s) : 2 channels
Channel positions : Front: L R
Sampling rate : 48.0 kHz
Frame rate : 46.875 FPS (1024 SPF)
Compression mode : Lossy
Delay relative to video : -21 ms
Stream size : 65.4 MiB (9%)
Title : GOPI SAHI
Language : English

Format : PGS
Language : English