Pimp 2020 Prime Flix Hindi S01 Com E01-10 GOPI SAHI





Pimp (2020) Prime Flix Hindi [S01 Com E01-10] 

Format                         : Matroska
Format version                 : Version 4
File size                      : 129 MiB
Duration                       : 21 min 11 s
Overall bit rate               : 854 kb/s
Encoded date                   : UTC 2020-05-10 22:58:05
Writing application            : mkvmerge v46.0.0 ('No Deeper Escape') 64-bit
Writing library                : libebml v1.3.10 + libmatroska v1.5.2

Video
ID                             : 1
Format                         : AVC
Format/Info                    : Advanced Video Codec
Format profile                 : [email protected]
Format settings                : CABAC / 4 Ref Frames
Format settings, CABAC         : Yes
Format settings, Reference fra : 4 frames
Codec ID                       : V_MPEG4/ISO/AVC
Duration                       : 21 min 11 s
Bit rate                       : 800 kb/s
Width                          : 1 280 pixels
Height                         : 672 pixels
Display aspect ratio           : 1.905
Frame rate mode                : Constant
Frame rate                     : 25.000 FPS
Color space                    : YUV
Chroma subsampling             : 4:2:0
Bit depth                      : 8 bits
Scan type                      : Progressive
Bits/(Pixel*Frame)             : 0.037
Stream size                    : 117 MiB (91%)
Writing library                : x264 core 155 r2901 7d0ff22

Audio
ID                             : 2
Format                         : AAC LC
Format/Info                    : Advanced Audio Codec Low Complexity
Codec ID                       : A_AAC-2
Duration                       : 21 min 11 s
Bit rate                       : 77.4 kb/s
Channel(s)                     : 2 channels
Channel layout                 : L R
Sampling rate                  : 44.1 kHz
Frame rate                     : 43.066 FPS (1024 SPF)
Compression mode               : Lossy
Stream size                    : 11.7 MiB (9%)
Language                       : Hindi
Default                        : Yes
Forced                         : No






ZIPER LINKS 

1.4 GB