(RE POST) Baaghi 3 2020 x264 720p HD Esub Hindi GOPI SAHI

Baaghi 3 (2020)

Not Rated | |Action, Thriller |6 March 2020 (USA)

A man embarks on a bloody rampage to save his kidnapped brother.

Director:

Ahmed Khan

Writers:

Tasha Bhambra (Additional screenplay), Sparsh Khetarpal (Additional screenplay) |2 more credits »

1.8/10
4,130

Directed byAhmed Khan
Written byFarhad Samji
(dialogue)
Screenplay byFarhad Samji
Sparsh Khetarpal
Tasha Bhambra
Madhur Sharma
Story bySajid Nadiadwala
StarringTiger Shroff
Ritesh Deshmukh
Shraddha Kapoor
Music bySongs:
Vishal–Shekhar
Tanishk Bagchi
Sachet–Parampara
Rochak Kohli
Pranaay Rijia
Score:
Julius Packiam
CinematographySanthana Krishnan Ravichandran
Edited byRameshwar S. Bhagat
Production
company
Distributed byFox Star Studios
Release date
  • 6 March 2020
Running time
143 minutes[1]
CountryIndia
LanguageHindi
Budget₹85 crore[2]
Box officeest. 137.05 crore[3]



Baaghi 3 2020 x264 720p HD Hindi GOPI SAHI

Format : Matroska
Format version : Version 4 / Version 2
File size : 1.01 GiB
Duration : 2 h 24 min
Overall bit rate : 996 kb/s
Movie name : Baaghi 3 2020 GOPI SAHI

Video
ID : 1
Format : AVC
Format/Info : Advanced Video Codec
Format profile : [email protected]
Format settings : CABAC / 5 Ref Frames
Format settings, CABAC : Yes
Format settings, ReFrames : 5 frames
Codec ID : V_MPEG4/ISO/AVC
Duration : 2 h 24 min
Bit rate : 899 kb/s
Width : 1 280 pixels
Height : 612 pixels
Display aspect ratio : 2.092
Frame rate mode : Constant
Frame rate : 24.000 FPS
Color space : YUV
Chroma subsampling : 4:2:0
Bit depth : 8 bits
Scan type : Progressive
Bits/(Pixel*Frame) : 0.048
Stream size : 932 MiB (90%)
Title : GOPI SAHI
Writing library : x264 core 148

Audio
ID : 2
Format : AAC
Format/Info : Advanced Audio Codec
Format profile : LC
Codec ID : A_AAC-2
Duration : 2 h 24 min
Bit rate : 96.0 kb/s
Channel(s) : 2 channels
Channel positions : Front: L R
Sampling rate : 48.0 kHz
Frame rate : 46.875 FPS (1024 SPF)
Compression mode : Lossy
Delay relative to video : -21 ms
Stream size : 98.8 MiB (10%)
Title : GOPI SAHI
Language : Hindi
Default : Yes
Forced : No

Text
ID : 3
Format : UTF-8
Codec ID : S_TEXT/UTF8
Codec ID/Info : UTF-8 Plain Text
Duration : 2 h 18 min
Bit rate : 43 b/s
Count of elements : 1652
Stream size : 44.3 KiB (0%)
Title : GOPI SAHI
Language : English
Default : No
Forced : No








Post a Comment

0 Comments