Red Dragon 2002 x264 720p Esub BluRay Dual Audio English Hindi Sadeemrdp GOPI SAHI

Red Dragon (2002)


A retired FBI agent with psychological gifts is assigned to help track down "The Tooth Fairy", a mysterious serial killer. Aiding him is imprisoned forensic psychiatrist Dr. Hannibal "The Cannibal" Lecter.

Director:

Brett Ratner

Writers:

Thomas Harris (novel), Ted Tally (screenplay)
7.2/10
241,961

Directed byBrett Ratner
Produced by
Screenplay byTed Tally
Based onRed Dragon
by Thomas Harris
Starring
Music byDanny Elfman
CinematographyDante Spinotti
Edited byMark Helfrich
Production
company
Distributed byUniversal Pictures[1]
Release date
  • October 4, 2002
Running time
124 minutes[2]
Country
LanguageEnglish
Budget$78 million[3]
Box office$209.1 million[3]



Format                         : Matroska
Format version                 : Version 4
File size                      : 980 MiB
Duration                       : 2 h 4 min
Overall bit rate               : 1 101 kb/s
Movie name                     : Red Dragon 2002 GOPI SAHI
Encoded date                   : UTC 2020-05-14 17:13:36
Writing application            : mkvmerge v46.0.0 ('No Deeper Escape') 32-bit
Writing library                : libebml v1.3.10 + libmatroska v1.5.2

Video
ID                             : 1
Format                         : AVC
Format/Info                    : Advanced Video Codec
Format profile                 : [email protected]
Format settings                : CABAC / 5 Ref Frames
Format settings, CABAC         : Yes
Format settings, Reference fra : 5 frames
Codec ID                       : V_MPEG4/ISO/AVC
Duration                       : 2 h 4 min
Bit rate                       : 899 kb/s
Width                          : 1 280 pixels
Height                         : 538 pixels
Display aspect ratio           : 2.40:1
Frame rate mode                : Constant
Frame rate                     : 23.976 (24000/1001) FPS
Color space                    : YUV
Chroma subsampling             : 4:2:0
Bit depth                      : 8 bits
Scan type                      : Progressive
Bits/(Pixel*Frame)             : 0.054
Stream size                    : 800 MiB (82%)
Title                          : GOPI SAHI
Writing library                : x264 core 157 r2935 545de2f

Audio #1
ID                             : 2
Format                         : AAC LC
Format/Info                    : Advanced Audio Codec Low Complexity
Codec ID                       : A_AAC-2
Duration                       : 2 h 4 min
Bit rate                       : 96.0 kb/s
Channel(s)                     : 2 channels
Channel layout                 : L R
Sampling rate                  : 48.0 kHz
Frame rate                     : 46.875 FPS (1024 SPF)
Compression mode               : Lossy
Delay relative to video        : -1 ms
Stream size                    : 85.8 MiB (9%)
Title                          : GOPI SAHI
Language                       : Hindi
Default                        : Yes
Forced                         : No

Audio #2
ID                             : 3
Format                         : AAC LC
Format/Info                    : Advanced Audio Codec Low Complexity
Codec ID                       : A_AAC-2
Duration                       : 2 h 4 min
Bit rate                       : 96.0 kb/s
Channel(s)                     : 2 channels
Channel layout                 : L R
Sampling rate                  : 48.0 kHz
Frame rate                     : 46.875 FPS (1024 SPF)
Compression mode               : Lossy
Delay relative to video        : -1 ms
Stream size                    : 85.8 MiB (9%)
Title                          : GOPI SAHI
Language                       : English
Default                        : No
Forced                         : No

Text
ID                             : 4
Format                         : VobSub
Muxing mode                    : zlib
Codec ID                       : S_VOBSUB
Codec ID/Info                  : Picture based subtitle format used on DVDs
Duration                       : 1 h 59 min
Bit rate                       : 10.9 kb/s
Count of elements              : 1628
Stream size                    : 9.26 MiB (1%)
Title                          : GOPI SAHI
Language                       : English
Default                        : No
Forced                         : No

Menu
00:00:00.000                   : :Chapter 1
00:08:46.151                   : :Chapter 2
00:11:12.088                   : :Chapter 3
00:16:05.882                   : :Chapter 4
00:26:43.435                   : :Chapter 5
00:29:02.532                   : :Chapter 6
00:36:58.216                   : :Chapter 7
00:39:06.970                   : :Chapter 8
00:50:45.501                   : :Chapter 9
00:58:03.730                   : :Chapter 10
01:04:54.224                   : :Chapter 11
01:08:27.186                   : :Chapter 12
01:11:26.282                   : :Chapter 13
01:24:34.319                   : :Chapter 14
01:32:43.850                   : :Chapter 15
01:37:12.368                   : :Chapter 16
01:40:46.040                   : :Chapter 17
01:44:40.733                   : :Chapter 18
01:52:54.101                   : :Chapter 19
02:00:06.866                   : :Chapter 20