Rise Of The Planet Of The Apes 2011 x264 720p Esub BluRay Dual Audio English Hindi Sadeemrdp GOPI SAHI

Rise of the Planet of the Apes (2011)

 
A substance designed to help the brain repair itself gives advanced intelligence to a chimpanzee who leads an ape uprising.

Director:

Rupert Wyatt

7.6/10


Directed byRupert Wyatt
Produced by
Written by
  • Rick Jaffa
  • Amanda Silver
Based onPremise suggested by Planet of the Apes
by Pierre Boulle
Starring
Music byPatrick Doyle
CinematographyAndrew Lesnie
Edited by
Production
company
Distributed by20th Century Fox
Release date
  • August 5, 2011
Running time
105 minutes[1][2]
CountryUnited States[3][4]
LanguageEnglish
Budget$93 million[5][2]
Box office$481.8 million[2]





Format                         : Matroska
Format version                 : Version 4
File size                      : 822 MiB
Duration                       : 1 h 44 min
Overall bit rate               : 1 095 kb/s
Movie name                     : Rise of the Planet of the Apes 2011 GOPI SAHI
Video
ID                             : 1
Format                         : AVC
Format/Info                    : Advanced Video Codec
Format profile                 : [email protected]
Format settings                : CABAC / 5 Ref Frames
Format settings, CABAC         : Yes
Format settings, Reference fra : 5 frames
Codec ID                       : V_MPEG4/ISO/AVC
Duration                       : 1 h 44 min
Bit rate                       : 899 kb/s
Width                          : 1 280 pixels
Height                         : 544 pixels
Display aspect ratio           : 2.35:1
Frame rate mode                : Constant
Frame rate                     : 23.976 (24000/1001) FPS
Color space                    : YUV
Chroma subsampling             : 4:2:0
Bit depth                      : 8 bits
Scan type                      : Progressive
Bits/(Pixel*Frame)             : 0.054
Stream size                    : 674 MiB (82%)
Title                          : GOPI SAHI
Writing library                : x264 core 157 r2935 545de2f

Audio #1
ID                             : 2
Format                         : AAC LC
Format/Info                    : Advanced Audio Codec Low Complexity
Codec ID                       : A_AAC-2
Duration                       : 1 h 44 min
Bit rate                       : 96.0 kb/s
Channel(s)                     : 2 channels
Channel layout                 : L R
Sampling rate                  : 48.0 kHz
Frame rate                     : 46.875 FPS (1024 SPF)
Compression mode               : Lossy
Delay relative to video        : -42 ms
Stream size                    : 72.4 MiB (9%)
Title                          : GOPI SAHI
Language                       : Hindi
Default                        : Yes
Forced                         : No

Audio #2
ID                             : 3
Format                         : AAC LC
Format/Info                    : Advanced Audio Codec Low Complexity
Codec ID                       : A_AAC-2
Duration                       : 1 h 44 min
Bit rate                       : 96.0 kb/s
Channel(s)                     : 2 channels
Channel layout                 : L R
Sampling rate                  : 48.0 kHz
Frame rate                     : 46.875 FPS (1024 SPF)
Compression mode               : Lossy
Delay relative to video        : -42 ms
Stream size                    : 72.4 MiB (9%)
Title                          : GOPI SAHI
Language                       : English
Default                        : No
Forced                         : No

Text
ID                             : 4
Format                         : UTF-8
Codec ID                       : S_TEXT/UTF8
Codec ID/Info                  : UTF-8 Plain Text
Duration                       : 1 h 34 min
Bit rate                       : 33 b/s
Count of elements              : 816
Stream size                    : 23.3 KiB (0%)
Title                          : GOPI SAHI
Language                       : English
Default                        : Yes
Forced                         : No