Robert And The Toymaker 2017 x264 720p Esub BluRay Dual Audio English Hindi Sadeemrdp GOPI SAHI

Robert and the Toymaker (2017)

The Toymaker (original title)
Not Rated | |Horror |21 August 2017 (UK)
In Germany, 1941, the Nazis pursue a Toymaker who has acquired a mystical book which gives life to inanimate objects.

Director:

Andrew Jones

Writer:

Andrew Jones

3.7/10
498



Robert And The Toymaker 2017 x264 720p Esub BluRay Dual Audio English Hindi Sadeemrdp GOPI SAHI

Format                         : Matroska
Format version                 : Version 4
File size                      : 780 MiB
Duration                       : 1 h 24 min
Overall bit rate               : 1 292 kb/s
Movie name                     : Robert And The Toymaker 2017 GOPI SAHI
Encoded date                   : UTC 2020-05-16 18:35:57
Writing application            : mkvmerge v46.0.0 ('No Deeper Escape') 32-bit
Writing library                : libebml v1.3.10 + libmatroska v1.5.2

Video
ID                             : 2
Format                         : AVC
Format/Info                    : Advanced Video Codec
Format profile                 : [email protected]
Format settings                : CABAC / 4 Ref Frames
Format settings, CABAC         : Yes
Format settings, Reference fra : 4 frames
Codec ID                       : V_MPEG4/ISO/AVC
Duration                       : 1 h 24 min
Bit rate                       : 1 050 kb/s
Width                          : 1 280 pixels
Height                         : 534 pixels
Display aspect ratio           : 2.40:1
Original display aspect ratio  : 2.40:1
Frame rate mode                : Constant
Frame rate                     : 25.000 FPS
Color space                    : YUV
Chroma subsampling             : 4:2:0
Bit depth                      : 8 bits
Scan type                      : Progressive
Bits/(Pixel*Frame)             : 0.061
Stream size                    : 634 MiB (81%)
Title                          : GOPI SAHI
Writing library                : x264 core 157

Audio #1
ID                             : 1
Format                         : AAC LC
Format/Info                    : Advanced Audio Codec Low Complexity
Codec ID                       : A_AAC-2
Duration                       : 1 h 24 min
Bit rate                       : 96.0 kb/s
Channel(s)                     : 2 channels
Channel layout                 : L R
Sampling rate                  : 48.0 kHz
Frame rate                     : 46.875 FPS (1024 SPF)
Compression mode               : Lossy
Delay relative to video        : -43 ms
Stream size                    : 58.0 MiB (7%)
Title                          : GOPI SAHI
Language                       : Hindi
Default                        : No
Forced                         : No

Audio #2
ID                             : 3
Format                         : AAC LC
Format/Info                    : Advanced Audio Codec Low Complexity
Codec ID                       : A_AAC-2
Duration                       : 1 h 24 min
Bit rate                       : 144 kb/s
Channel(s)                     : 2 channels
Channel layout                 : L R
Sampling rate                  : 48.0 kHz
Frame rate                     : 46.875 FPS (1024 SPF)
Compression mode               : Lossy
Delay relative to video        : -43 ms
Stream size                    : 86.3 MiB (11%)
Title                          : GOPI SAHI
Language                       : English
Default                        : No
Forced                         : No

Text
ID                             : 4
Format                         : UTF-8
Codec ID                       : S_TEXT/UTF8
Codec ID/Info                  : UTF-8 Plain Text
Duration                       : 1 h 21 min
Bit rate                       : 38 b/s
Count of elements              : 870
Stream size                    : 23.2 KiB (0%)
Title                          : GOPI SAHI
Language                       : English
Default                        : Yes
Forced                         : No
















Post a Comment

0 Comments