Sanju 2018 x264 720p Esub BluRay Hindi Sadeemrdp GOPI SAHI

Sanju (2018)

TV-MA | |Biography, Drama |29 June 2018 (USA)

Sanju is a biopic of the controversial life of actor Sanjay Dutt: his film career, jail sentence and personal life.

Director:

Rajkumar Hirani

Writers:

Abhiruchi Chand (assistant dialogue writer), Rajkumar Hirani |1 more credit »

7.8/10
44,709

Directed byRajkumar Hirani
Produced byVidhu Vinod Chopra
Rajkumar Hirani[1][2]
Written byRajkumar Hirani
Abhijat Joshi
Based onSanjay Dutt
StarringRanbir Kapoor
Paresh Rawal
Vicky Kaushal
Manisha Koirala
Dia Mirza
Sonam Kapoor
Anushka Sharma
Jim Sarbh
Narrated byRanbir Kapoor
Music byA. R. Rahman
Rohan-Rohan
Vikram Montrose
CinematographyRavi Varman
Edited byRajkumar Hirani
Production
company
Rajkumar Hirani Films
Vinod Chopra Films
Distributed byFox Star Studios
20th Century Fox
Release date
  • 29 June 2018[3]
Running time
161 minutes[4]
CountryIndia
LanguageHindi
Budget150 crore[5]
Box officeest. ₹586.85 crore[6]






Format                         : Matroska
Format version                 : Version 4
File size                      : 1.13 GiB
Duration                       : 2 h 40 min
Overall bit rate               : 1 011 kb/s
Movie name                     : Sanju 2018 GOPI SAHI

Video
ID                             : 1
Format                         : AVC
Format/Info                    : Advanced Video Codec
Format profile                 : [email protected]
Format settings                : CABAC / 5 Ref Frames
Format settings, CABAC         : Yes
Format settings, Reference fra : 5 frames
Codec ID                       : V_MPEG4/ISO/AVC
Duration                       : 2 h 40 min
Bit rate                       : 899 kb/s
Width                          : 1 280 pixels
Height                         : 534 pixels
Display aspect ratio           : 2.40:1
Frame rate mode                : Constant
Frame rate                     : 24.000 FPS
Color space                    : YUV
Chroma subsampling             : 4:2:0
Bit depth                      : 8 bits
Scan type                      : Progressive
Bits/(Pixel*Frame)             : 0.055
Stream size                    : 1.01 GiB (89%)
Title                          : GOPI SAHI
Writing library                : x264 core 157 r2935 545de2f

Audio
ID                             : 2
Format                         : AAC LC
Format/Info                    : Advanced Audio Codec Low Complexity
Codec ID                       : A_AAC-2
Duration                       : 2 h 40 min
Bit rate                       : 96.0 kb/s
Channel(s)                     : 2 channels
Channel layout                 : L R
Sampling rate                  : 48.0 kHz
Frame rate                     : 46.875 FPS (1024 SPF)
Compression mode               : Lossy
Delay relative to video        : -21 ms
Stream size                    : 110 MiB (9%)
Title                          : GOPI SAHI
Language                       : Hindi
Default                        : Yes
Forced                         : No

Text
ID                             : 3
Format                         : PGS
Muxing mode                    : zlib
Codec ID                       : S_HDMV/PGS
Codec ID/Info                  : Picture based subtitle format used on BDs/HD-DVDs
Duration                       : 2 h 34 min
Bit rate                       : 20.7 kb/s
Count of elements              : 4025
Stream size                    : 22.8 MiB (2%)
Title                          : GOPI SAHI
Language                       : English
Default                        : Yes
Forced                         : No

Menu
00:00:00.000                   : :Chapter 1
00:09:40.458                   : :Chapter 2
00:15:32.458                   : :Chapter 3
00:20:05.292                   : :Chapter 4
00:22:21.208                   : :Chapter 5
00:27:59.833                   : :Chapter 6
00:32:53.583                   : :Chapter 7
00:43:17.917                   : :Chapter 8
00:54:19.167                   : :Chapter 9
01:00:41.083                   : :Chapter 10
01:03:10.000                   : :Chapter 11
01:09:35.625                   : :Chapter 12
01:16:38.750                   : :Chapter 13
01:18:43.833                   : :Chapter 14
01:26:13.583                   : :Chapter 15
01:33:43.000                   : :Chapter 16
01:39:21.750                   : :Chapter 17
01:46:36.083                   : :Chapter 18
01:51:59.250                   : :Chapter 19
01:57:36.750                   : :Chapter 20
02:00:34.833                   : :Chapter 21
02:07:50.875                   : :Chapter 22
02:13:29.000                   : :Chapter 23
02:21:34.875                   : :Chapter 24
02:28:35.500                   : :Chapter 25
02:33:25.500                   : :Chapter 26















USAUPLOAD