Shaolin Soccer 2001 x264 720p Esub BluRay Dual Audio English Hindi Sadeemrdp GOPI SAHI


Shaolin Soccer (2001)

Siu Lam juk kau (original title)
 
A young Shaolin follower reunites with his discouraged brothers to form a soccer team using their martial art skills to their advantage.

Director:

Stephen Chow

Writers:

Stephen Chow, Kan-Cheung Tsang (as Tsang Kan Cheong) |4 more credits »
7.3/10


Traditional少林足球
MandarinShàolín Zúqiú
CantoneseSiu3Lam4 Zuk1Kau4
Directed byStephen Chow
Produced byYeung Kwok-Fai
Written by
  • Stephen Chow
  • Tsang Kan-cheung
Starring
Music by
Cinematography
Edited byKai Kit-Wai
Production
company
  • Star Overseas Ltd
  • Universe Entertainment Ltd
Distributed by
Release date
  • 12 July 2001
Running time
112 minutes[1]
CountryHong Kong
LanguageCantonese
BudgetUS$10 million[2]
Box officeUS$42.8 million[3]


Format                         : Matroska
Format version                 : Version 4
File size                      : 698 MiB
Duration                       : 1 h 29 min
Overall bit rate               : 1 094 kb/s
Movie name                     : Shaolin Soccer 2001 GOPI SAHI
Encoded date                   : UTC 2020-05-20 10:13:12
Writing application            : mkvmerge v46.0.0 ('No Deeper Escape') 32-bit
Writing library                : libebml v1.3.10 + libmatroska v1.5.2

Video
ID                             : 1
Format                         : AVC
Format/Info                    : Advanced Video Codec
Format profile                 : [email protected]
Format settings                : CABAC / 5 Ref Frames
Format settings, CABAC         : Yes
Format settings, Reference fra : 5 frames
Codec ID                       : V_MPEG4/ISO/AVC
Duration                       : 1 h 29 min
Bit rate                       : 899 kb/s
Width                          : 1 280 pixels
Height                         : 720 pixels
Display aspect ratio           : 16:9
Frame rate mode                : Constant
Frame rate                     : 23.976 (24000/1001) FPS
Color space                    : YUV
Chroma subsampling             : 4:2:0
Bit depth                      : 8 bits
Scan type                      : Progressive
Bits/(Pixel*Frame)             : 0.041
Stream size                    : 574 MiB (82%)
Title                          : GOPI SAHI
Writing library                : x264 core 157 r2935 545de2f

Audio #1
ID                             : 2
Format                         : AAC LC
Format/Info                    : Advanced Audio Codec Low Complexity
Codec ID                       : A_AAC-2
Duration                       : 1 h 29 min
Bit rate                       : 96.0 kb/s
Channel(s)                     : 2 channels
Channel layout                 : L R
Sampling rate                  : 48.0 kHz
Frame rate                     : 46.875 FPS (1024 SPF)
Compression mode               : Lossy
Delay relative to video        : -21 ms
Stream size                    : 61.6 MiB (9%)
Title                          : GOPI SAHI
Language                       : Hindi
Default                        : Yes
Forced                         : No

Audio #2
ID                             : 3
Format                         : AAC LC
Format/Info                    : Advanced Audio Codec Low Complexity
Codec ID                       : A_AAC-2
Duration                       : 1 h 29 min
Bit rate                       : 96.0 kb/s
Channel(s)                     : 2 channels
Channel layout                 : L R
Sampling rate                  : 48.0 kHz
Frame rate                     : 46.875 FPS (1024 SPF)
Compression mode               : Lossy
Delay relative to video        : -21 ms
Stream size                    : 61.1 MiB (9%)
Title                          : GOPI SAHI
Language                       : English
Default                        : No
Forced                         : No






Post a Comment

0 Comments