Shootout At Wadala 2013 x264 720p Esub BluRay Hindi Sadeemrdp GOPI SAHI

Shootout at Wadala (2013)

Not Rated | |Action, Crime |3 May 2013 (India)
The first-ever registered encounter by the Mumbai Police, which took place on November 1, 1982. Based on a true story.

Director:

Sanjay Gupta

Writers:

Sanjay Bhatia (screenplay), Abhijeet Shirish Deshpande (screenplay) (as Abhijeet Deshpande) |4 more credits »
5.9/10

Directed bySanjay Gupta
Produced bySanjay Gupta
Anuradha Gupta
Ekta Kapoor
Shobha Kapoor
Screenplay bySanjay Gupta
Sanjay Bhatia
Abhijit Deshpande
Milap Zaveri
(dialogue)
Story bySanjay Gupta
Hussain Zaidi
Based onDongri to Dubai
by Hussain Zaidi
StarringJohn Abraham
Anil Kapoor
Kangana Ranaut
Sonu Sood
Manoj Bajpayee
Ronit Roy
Mahesh Manjrekar
Tusshar Kapoor
Narrated byJohn Abraham
Music bySongs:
Anu Malik
Mustafa Zahid
Anand Raj Anand
Meet Bros Anjaan
Background score:
Amar Mohile
CinematographySameer Arya
Sanjay F. Gupta
Edited byBunty Nagi
Production
company
Distributed byWhite Feather Films (worldwide)
Release date
  • 3 May 2013
Running time
150 minutes[1]
CountryIndia
LanguageHindi
Budget48 crore (US$6.7 million)
Box office75 crore (US$11 million)
(domestic net)[2]



Shootout at Wadala 2013 x264 720p Esub BluRay Hindi Sadeemrdp GOPI SAHI
 
Format                         : Matroska
Format version                 : Version 4
File size                      : 1.06 GiB
Duration                       : 2 h 29 min
Overall bit rate               : 1 013 kb/s
Movie name                     : Shootout at Wadala 2013 GOPI SAHI

Video
ID                             : 1
Format                         : AVC
Format/Info                    : Advanced Video Codec
Format profile                 : [email protected]
Format settings                : CABAC / 5 Ref Frames
Format settings, CABAC         : Yes
Format settings, Reference fra : 5 frames
Codec ID                       : V_MPEG4/ISO/AVC
Duration                       : 2 h 29 min
Bit rate                       : 899 kb/s
Width                          : 1 280 pixels
Height                         : 544 pixels
Display aspect ratio           : 2.35:1
Frame rate mode                : Constant
Frame rate                     : 24.000 FPS
Color space                    : YUV
Chroma subsampling             : 4:2:0
Bit depth                      : 8 bits
Scan type                      : Progressive
Bits/(Pixel*Frame)             : 0.054
Stream size                    : 964 MiB (89%)
Title                          : GOPI SAHI
Writing library                : x264 core 157 r2935 545de2f

Audio
ID                             : 2
Format                         : AAC LC
Format/Info                    : Advanced Audio Codec Low Complexity
Codec ID                       : A_AAC-2
Duration                       : 2 h 29 min
Bit rate                       : 96.0 kb/s
Channel(s)                     : 2 channels
Channel layout                 : L R
Sampling rate                  : 48.0 kHz
Frame rate                     : 46.875 FPS (1024 SPF)
Compression mode               : Lossy
Delay relative to video        : -1 ms
Stream size                    : 104 MiB (10%)
Title                          : GOPI SAHI
Language                       : Hindi
Default                        : Yes
Forced                         : No

Text #1
ID                             : 3
Format                         : PGS
Muxing mode                    : zlib
Codec ID                       : S_HDMV/PGS
Codec ID/Info                  : Picture based subtitle format used on BDs/HD-DVDs
Duration                       : 2 h 21 min
Bit rate                       : 24.9 kb/s
Count of elements              : 3362
Stream size                    : 25.2 MiB (2%)
Title                          : GOPI SAHI
Language                       : English
Default                        : Yes
Forced                         : No

Text #2
ID                             : 4
Format                         : PGS
Muxing mode                    : zlib
Codec ID                       : S_HDMV/PGS
Codec ID/Info                  : Picture based subtitle format used on BDs/HD-DVDs
Duration                       : 2 h 21 min
Bit rate                       : 14.2 kb/s
Count of elements              : 3362
Stream size                    : 14.4 MiB (1%)
Title                          : GOPI SAHI
Language                       : Arabic
Default                        : No
Forced                         : No

Menu
00:00:00.000                   : :Chapter 1
00:14:27.542                   : :Chapter 2
00:21:02.375                   : :Chapter 3
00:46:19.417                   : :Chapter 4
01:03:43.208                   : :Chapter 5
01:08:34.708                   : :Chapter 6
01:12:02.292                   : :Chapter 7
01:18:47.250                   : :Chapter 8
01:26:11.542                   : :Chapter 9
01:46:48.583                   : :Chapter 10
01:57:42.167                   : :Chapter 11
02:15:57.333                   : :Chapter 12
02:24:09.375                   : :Chapter 13