Simmba 2018 x264 720p Esub BluRay Hindi Sadeemrdp GOPI SAHI

Simmba (2018)

Not Rated | |Action, Comedy, Drama |28 December 2018 (USA)

Simmba, a Corrupt Officer, enjoys all the perks of being an immoral and unethical police officer until a life-changing event forces him to choose the righteous path.

Director:

Rohit Shetty

Writers:

Puri Jagannadh (original story), Vakkantham Vamsi (original story) |4 more credits »
 5.9/10 

Directed byRohit Shetty
Produced by
Written byFarhad Samji
Dialogues:
Screenplay byYunus Sajawal
Sajid Samji
Story byRohit Shetty
Vakkantham Vamsi
Starring
Narrated byAjay Devgn
Music bySongs:
Tanishk Bagchi
Lijo George – DJ Chetas
S. Thaman
Score:
Amar Mohile
Chandan Saxena
S. Thaman
CinematographyJomon T. John
Edited byBunty Negi
Production
company
Distributed byReliance Entertainment
Release date
Running time
159 minutes[2]
CountryIndia
LanguageHindi[3]
Budget80–139 crore[4][5]
Box officeest. 400.19 crore[6]


Format                         : Matroska
Format version                 : Version 4
File size                      : 1.12 GiB
Duration                       : 2 h 37 min
Overall bit rate               : 1 017 kb/s
Movie name                     : Simmba 2018 GOPI SAHI
Encoded date                   : UTC 2020-05-20 13:37:29
Writing application            : mkvmerge v46.0.0 ('No Deeper Escape') 32-bit
Writing library                : libebml v1.3.10 + libmatroska v1.5.2

Video
ID                             : 1
Format                         : AVC
Format/Info                    : Advanced Video Codec
Format profile                 : [email protected]
Format settings                : CABAC / 5 Ref Frames
Format settings, CABAC         : Yes
Format settings, Reference fra : 5 frames
Codec ID                       : V_MPEG4/ISO/AVC
Duration                       : 2 h 37 min
Bit rate                       : 899 kb/s
Width                          : 1 280 pixels
Height                         : 534 pixels
Display aspect ratio           : 2.40:1
Frame rate mode                : Constant
Frame rate                     : 24.000 FPS
Color space                    : YUV
Chroma subsampling             : 4:2:0
Bit depth                      : 8 bits
Scan type                      : Progressive
Bits/(Pixel*Frame)             : 0.055
Stream size                    : 1 013 MiB (88%)
Title                          : GOPI SAHI
Writing library                : x264 core 157 r2935 545de2f

Audio
ID                             : 2
Format                         : AAC LC
Format/Info                    : Advanced Audio Codec Low Complexity
Codec ID                       : A_AAC-2
Duration                       : 2 h 37 min
Bit rate                       : 96.0 kb/s
Channel(s)                     : 2 channels
Channel layout                 : L R
Sampling rate                  : 48.0 kHz
Frame rate                     : 46.875 FPS (1024 SPF)
Compression mode               : Lossy
Delay relative to video        : -21 ms
Stream size                    : 108 MiB (9%)
Title                          : GOPI SAHI
Language                       : Hindi
Default                        : Yes
Forced                         : No

Text
ID                             : 3
Format                         : PGS
Muxing mode                    : zlib
Codec ID                       : S_HDMV/PGS
Codec ID/Info                  : Picture based subtitle format used on BDs/HD-DVDs
Duration                       : 2 h 32 min
Bit rate                       : 28.6 kb/s
Count of elements              : 4181
Stream size                    : 31.2 MiB (3%)
Title                          : GOPI SAHI
Language                       : English
Default                        : Yes
Forced                         : No

Menu
00:00:00.000                   : :C.C.
00:01:59.708                   : :An antiheroic orphan 'SIMMBA'
00:13:01.500                   : :Aala Re Aala...
00:15:22.542                   : :Transferred to Miramar, Goa
00:24:20.875                   : :Simmba's First Move
00:32:11.750                   : :Simmba's Sworn Sister
00:42:37.167                   : :Aankh Marey...
00:45:50.417                   : :Simmba True To His Amoral Nature
00:57:53.042                   : :Tere Bin...
01:05:34.083                   : :Inescapable Fate
01:26:22.833                   : :The Righteous Path
01:39:29.667                   : :Bandeya Re Bandeya...
01:43:50.500                   : :Evidence Tampered
01:58:46.500                   : :Planned Encounter
02:20:27.625                   : :Singham Comes To The Rescue
02:27:59.125                   : :Court Judgement
02:35:16.250                   : :End Credits / Mera Wala Dance...






Post a Comment

0 Comments