Snake & Crane Arts of Shaolin 1978 x264 720p Esub BluRay Dual Audio Hindi Chinese Sadeemrdp GOPI SAHI


Snake and Crane Arts of Shaolin (1978)

She he ba bu (original title)

A martial arts book, which Hsu Yin-Fung (Jackie Chan) carries, is being highly sought by various clans and gangs, but he is in pursuit of someone himself.

Director:

Chi-Hwa Chen

Writer:

Hsin Yi Chang (screenplay)

6.6/10
2,133

Directed byChen Chi Hwa
Produced byLo Wei
Hwa Hsu Li
StarringJackie Chan
Sheng Wang Chi
Kong Kim
Nora Miao
Music byLeung Chow Fook
Production
company
Release date
8 March 1978
Running time
93 mins
CountryHong Kong
LanguageMandarin
Box officeHK $662,851.30


Format                         : Matroska
Format version                 : Version 4
File size                      : 897 MiB
Duration                       : 1 h 41 min
Overall bit rate               : 1 238 kb/s
Movie name                     : Snake & Crane Arts of Shaolin 1978 GOPI SAHI
Encoded date                   : UTC 2020-05-12 21:13:37
Writing application            : mkvmerge v46.0.0 ('No Deeper Escape') 32-bit
Writing library                : libebml v1.3.10 + libmatroska v1.5.2

Video
ID                             : 2
Format                         : AVC
Format/Info                    : Advanced Video Codec
Format profile                 : [email protected]
Format settings                : CABAC / 4 Ref Frames
Format settings, CABAC         : Yes
Format settings, Reference fra : 4 frames
Codec ID                       : V_MPEG4/ISO/AVC
Duration                       : 1 h 41 min
Bit rate                       : 1 050 kb/s
Width                          : 1 280 pixels
Height                         : 544 pixels
Display aspect ratio           : 2.35:1
Frame rate mode                : Constant
Frame rate                     : 23.976 (24000/1001) FPS
Color space                    : YUV
Chroma subsampling             : 4:2:0
Bit depth                      : 8 bits
Scan type                      : Progressive
Bits/(Pixel*Frame)             : 0.063
Stream size                    : 761 MiB (85%)
Title                          : GOPI SAHI
Writing library                : x264 core 157
Default                        : Yes
Forced                         : No

Audio #1
ID                             : 1
Format                         : AAC LC
Format/Info                    : Advanced Audio Codec Low Complexity
Codec ID                       : A_AAC-2
Duration                       : 1 h 41 min
Bit rate                       : 96.0 kb/s
Channel(s)                     : 2 channels
Channel layout                 : L R
Sampling rate                  : 48.0 kHz
Frame rate                     : 46.875 FPS (1024 SPF)
Compression mode               : Lossy
Delay relative to video        : -43 ms
Stream size                    : 69.8 MiB (8%)
Title                          : GOPI SAHI
Language                       : Hindi
Default                        : No
Forced                         : No

Audio #2
ID                             : 3
Format                         : AAC LC
Format/Info                    : Advanced Audio Codec Low Complexity
Codec ID                       : A_AAC-2
Duration                       : 1 h 41 min
Bit rate                       : 88.7 kb/s
Channel(s)                     : 2 channels
Channel layout                 : L R
Sampling rate                  : 48.0 kHz
Frame rate                     : 46.875 FPS (1024 SPF)
Compression mode               : Lossy
Delay relative to video        : -43 ms
Stream size                    : 64.3 MiB (7%)
Title                          : GOPI SAHI
Language                       : Chinese
Default                        : No
Forced                         : No

Text
ID                             : 4
Format                         : UTF-8
Codec ID                       : S_TEXT/UTF8
Codec ID/Info                  : UTF-8 Plain Text
Duration                       : 1 h 39 min
Bit rate                       : 49 b/s
Count of elements              : 1056
Stream size                    : 36.5 KiB (0%)
Title                          : GOPI SAHI
Language                       : English
Default                        : Yes
Forced                         : No




Post a Comment

0 Comments