Sonic The Hedgehog 2020 x264 720p iTuNeS Dual Audio English Hindi Sadeemrdp GOPI SAHI

Sonic the Hedgehog (2020)


After discovering a small, blue, fast hedgehog, a small-town police officer must help him defeat an evil genius who wants to do experiments on him.

Director:

Jeff Fowler

6.6/10
61,962

Directed byJeff Fowler
Produced by
Written by
Based onSonic the Hedgehog
by Sega[1][a]
Starring
Narrated byBen Schwartz
Music byTom Holkenborg
CinematographyStephen F. Windon
Edited by
Production
companies
Distributed byParamount Pictures
Release date
Running time
99 minutes[4]
Country
LanguageEnglish
Budget$81–95 million[7][8]
Box office$306.8 million[9][10]

Format                         : Matroska
Format version                 : Version 4
File size                      : 772 MiB
Duration                       : 1 h 38 min
Overall bit rate               : 1 094 kb/s
Movie name                     : Sonic The Hedgehog 2020 GOPI SAHI
Description                    : The world needed a hero, we got a hedgehog. Powered with incredible speed, Sonic The Hedgehog (voiced by Ben Schwartz), aka The Blue Blur, embraces his new home on Earth. That is, until he accidentally knocks out the power grid and sparks the attention of
Released date                  : 2020
Encoded date                   : UTC 2020-05-27 15:49:24
Writing application            : mkvmerge v46.0.0 ('No Deeper Escape') 32-bit
Writing library                : libebml v1.3.10 + libmatroska v1.5.2 / Lavf58.29.100
ARTIST                         : Jeff Fowler
GENRE                          : Kids & Family

Video
ID                             : 1
Format                         : AVC
Format/Info                    : Advanced Video Codec
Format profile                 : [email protected]
Format settings                : CABAC / 5 Ref Frames
Format settings, CABAC         : Yes
Format settings, Reference fra : 5 frames
Codec ID                       : V_MPEG4/ISO/AVC
Duration                       : 1 h 38 min
Bit rate                       : 899 kb/s
Width                          : 1 280 pixels
Height                         : 536 pixels
Display aspect ratio           : 2.40:1
Frame rate mode                : Constant
Frame rate                     : 23.976 (24000/1001) FPS
Color space                    : YUV
Chroma subsampling             : 4:2:0
Bit depth                      : 8 bits
Scan type                      : Progressive
Bits/(Pixel*Frame)             : 0.055
Stream size                    : 634 MiB (82%)
Title                          : GOPI SAHI
Writing library                : x264 core 157 r2935 545de2f

Audio #1
ID                             : 2
Format                         : AAC LC
Format/Info                    : Advanced Audio Codec Low Complexity
Codec ID                       : A_AAC-2
Duration                       : 1 h 38 min
Bit rate                       : 96.0 kb/s
Channel(s)                     : 2 channels
Channel layout                 : L R
Sampling rate                  : 48.0 kHz
Frame rate                     : 46.875 FPS (1024 SPF)
Compression mode               : Lossy
Delay relative to video        : -64 ms
Stream size                    : 67.8 MiB (9%)
Title                          : GOPI SAHI
Language                       : Hindi
Default                        : Yes
Forced                         : No

Audio #2
ID                             : 3
Format                         : AAC LC
Format/Info                    : Advanced Audio Codec Low Complexity
Codec ID                       : A_AAC-2
Duration                       : 1 h 38 min
Bit rate                       : 96.0 kb/s
Channel(s)                     : 2 channels
Channel layout                 : L R
Sampling rate                  : 48.0 kHz
Frame rate                     : 46.875 FPS (1024 SPF)
Compression mode               : Lossy
Delay relative to video        : -64 ms
Stream size                    : 67.8 MiB (9%)
Title                          : GOPI SAHI
Language                       : English
Default                        : No
Forced                         : No

Menu
00:00:00.043                   : :Chapter 1
00:03:51.858                   : :Chapter 2
00:09:32.991                   : :Chapter 3
00:12:36.633                   : :Chapter 4
00:18:00.081                   : :Chapter 5
00:22:10.998                   : :Chapter 6
00:27:24.353                   : :Chapter 7
00:34:59.975                   : :Chapter 8
00:41:27.987                   : :Chapter 9
00:50:53.302                   : :Chapter 10
01:00:33.507                   : :Chapter 11
01:04:06.928                   : :Chapter 12
01:09:49.020                   : :Chapter 13
01:18:22.700                   : :Chapter 14
01:25:03.225                   : :Chapter 15
01:29:51.805                   : :Chapter 16