Special 26 2013 x264 720p Esub BluRay Hindi Sadeemrdp GOPI SAHI

Special 26 (2013)

Special Chabbis (original title)
Not Rated | |Crime, Drama, Thriller |8 February 2013 (India)

A gang of con-men rob prominent rich businessmen and politicians by posing as C.B.I and income tax officers.

Director:

Neeraj Pandey
8.0/10

Directed byNeeraj Pandey
Produced by
  • Shital Bhatia
  • Kumar Mangat
Written byNeeraj Pandey
Based on1987 Opera House heist
Starring
Music by
CinematographyBobby Singh
Edited byShree Narayan Singh
Production
company
Distributed byViacom 18 Motion Pictures
Release date
  • 7 February 2013
Running time
144 minutes[1]
CountryIndia
LanguageHindi
Budget39 crore[2]
Box officeest. 126 crore (US$18 million)[3]


Special 26 2013 GOPI SAHI

Format                         : Matroska
Format version                 : Version 4
File size                      : 1.01 GiB
Duration                       : 2 h 23 min
Overall bit rate               : 1 007 kb/s
Movie name                     : Special 26 2013 GOPI SAHI
Encoded date                   : UTC 2020-05-11 17:35:47
Writing application            : mkvmerge v46.0.0 ('No Deeper Escape') 32-bit
Writing library                : libebml v1.3.10 + libmatroska v1.5.2

Video
ID                             : 1
Format                         : AVC
Format/Info                    : Advanced Video Codec
Format profile                 : [email protected]
Format settings                : CABAC / 5 Ref Frames
Format settings, CABAC         : Yes
Format settings, Reference fra : 5 frames
Codec ID                       : V_MPEG4/ISO/AVC
Duration                       : 2 h 23 min
Bit rate                       : 899 kb/s
Width                          : 1 280 pixels
Height                         : 552 pixels
Display aspect ratio           : 2.35:1
Frame rate mode                : Constant
Frame rate                     : 24.000 FPS
Color space                    : YUV
Chroma subsampling             : 4:2:0
Bit depth                      : 8 bits
Scan type                      : Progressive
Bits/(Pixel*Frame)             : 0.053
Stream size                    : 923 MiB (89%)
Title                          : GOPI SAHI
Writing library                : x264 core 157 r2935 545de2f

Audio
ID                             : 2
Format                         : AAC LC
Format/Info                    : Advanced Audio Codec Low Complexity
Codec ID                       : A_AAC-2
Duration                       : 2 h 23 min
Bit rate                       : 96.0 kb/s
Channel(s)                     : 2 channels
Channel layout                 : L R
Sampling rate                  : 48.0 kHz
Frame rate                     : 46.875 FPS (1024 SPF)
Compression mode               : Lossy
Delay relative to video        : -21 ms
Stream size                    : 98.5 MiB (10%)
Title                          : GOPI SAHI
Language                       : Hindi
Default                        : Yes
Forced                         : No

Text
ID                             : 3
Format                         : PGS
Muxing mode                    : zlib
Codec ID                       : S_HDMV/PGS
Codec ID/Info                  : Picture based subtitle format used on BDs/HD-DVDs
Duration                       : 2 h 22 min
Bit rate                       : 25.5 kb/s
Count of elements              : 3138
Stream size                    : 25.9 MiB (3%)
Title                          : GOPI SAHI
Language                       : English
Default                        : Yes
Forced                         : No

Menu #1
00:00:00.000                   : :00:00:00.000
00:05:11.667                   : :00:05:11.667
00:19:27.583                   : :00:19:27.583
00:28:04.083                   : :00:28:04.083
00:30:26.042                   : :00:30:26.000
00:35:06.917                   : :00:35:06.833
00:39:11.042                   : :00:39:11.000
00:49:33.375                   : :00:49:33.375
00:54:52.833                   : :00:54:52.833
01:08:23.333                   : :01:08:23.333
01:12:15.833                   : :01:12:15.833
01:16:24.208                   : :01:16:24.208
01:28:19.083                   : :01:28:19.000
01:40:52.625                   : :01:40:52.625
02:03:56.125                   : :02:03:56.125
02:20:03.208                   : :02:20:03.208

Menu #2
00:00:00.000                   : en:00:00:00.000
00:05:11.667                   : en:00:05:11.667
00:19:27.583                   : en:00:19:27.583
00:28:04.083                   : en:00:28:04.083
00:30:26.000                   : en:00:30:26.000
00:35:06.833                   : en:00:35:06.833
00:39:11.000                   : en:00:39:11.000
00:49:33.375                   : en:00:49:33.375
00:54:52.833                   : en:00:54:52.833
01:08:23.333                   : en:01:08:23.333
01:12:15.833                   : en:01:12:15.833
01:16:24.208                   : en:01:16:24.208
01:28:19.000                   : en:01:28:19.000
01:40:52.625                   : en:01:40:52.625
02:03:56.125                   : en:02:03:56.125
02:20:03.208                   : en:02:20:03.208