The Devil Inside 2012 x264 720p Esub BluRay Dual Audio English Hindi Sadeemrdp GOPI SAHI

The Devil Inside (2012)

In Italy, a woman becomes involved in a series of unauthorized exorcisms during her mission to discover what happened to her mother, who allegedly murdered three people during her own exorcism.

4.2/10
34,364
Directed byWilliam Brent Bell
Produced byMatthew Peterman
Morris Paulson
Written byWilliam Brent Bell
Matthew Peterman
StarringFernanda Andrade
Simon Quarterman
Evan Helmuth
Suzan Crowley
Music byBrett Detar
Ben Romans
CinematographyGonzalo Amat
Edited byTimothy Mirkovich
William Brent Bell
Production
company
Distributed byParamount Pictures
Release date
  • January 6, 2012
Running time
83 minutes[1]
CountryUnited States
LanguageEnglish
Budget$1 million[2]
Box office$101.8 million[3]



Format                         : Matroska
Format version                 : Version 4
File size                      : 650 MiB
Duration                       : 1 h 23 min
Overall bit rate               : 1 093 kb/s
Movie name                     : The Devil Inside 2012 GOPI SAHI
Encoded date                   : UTC 2020-05-12 18:23:10
Writing application            : mkvmerge v46.0.0 ('No Deeper Escape') 32-bit
Writing library                : libebml v1.3.10 + libmatroska v1.5.2

Video
ID                             : 1
Format                         : AVC
Format/Info                    : Advanced Video Codec
Format profile                 : [email protected]
Format settings                : CABAC / 5 Ref Frames
Format settings, CABAC         : Yes
Format settings, Reference fra : 5 frames
Codec ID                       : V_MPEG4/ISO/AVC
Duration                       : 1 h 23 min
Bit rate                       : 899 kb/s
Width                          : 1 280 pixels
Height                         : 720 pixels
Display aspect ratio           : 16:9
Frame rate mode                : Constant
Frame rate                     : 23.976 (24000/1001) FPS
Color space                    : YUV
Chroma subsampling             : 4:2:0
Bit depth                      : 8 bits
Scan type                      : Progressive
Bits/(Pixel*Frame)             : 0.041
Stream size                    : 534 MiB (82%)
Title                          : GOPI SAHI
Writing library                : x264 core 157 r2935 545de2f

Audio #1
ID                             : 2
Format                         : AAC LC
Format/Info                    : Advanced Audio Codec Low Complexity
Codec ID                       : A_AAC-2
Duration                       : 1 h 23 min
Bit rate                       : 96.0 kb/s
Channel(s)                     : 2 channels
Channel layout                 : L R
Sampling rate                  : 48.0 kHz
Frame rate                     : 46.875 FPS (1024 SPF)
Compression mode               : Lossy
Delay relative to video        : -21 ms
Stream size                    : 57.1 MiB (9%)
Title                          : GOPI SAHI
Language                       : Hindi
Default                        : Yes
Forced                         : No

Audio #2
ID                             : 3
Format                         : AAC LC
Format/Info                    : Advanced Audio Codec Low Complexity
Codec ID                       : A_AAC-2
Duration                       : 1 h 23 min
Bit rate                       : 96.0 kb/s
Channel(s)                     : 2 channels
Channel layout                 : L R
Sampling rate                  : 48.0 kHz
Frame rate                     : 46.875 FPS (1024 SPF)
Compression mode               : Lossy
Delay relative to video        : -21 ms
Stream size                    : 57.0 MiB (9%)
Title                          : GOPI SAHI
Language                       : English
Default                        : No
Forced                         : No

Text
ID                             : 4
Format                         : UTF-8
Codec ID                       : S_TEXT/UTF8
Codec ID/Info                  : UTF-8 Plain Text
Duration                       : 1 h 14 min
Bit rate                       : 85 b/s
Count of elements              : 1328
Stream size                    : 46.2 KiB (0%)
Title                          : GOPI SAHI
Language                       : English
Default                        : Yes
Forced                         : No









UPLOADFILES




Post a Comment

0 Comments