The Hobbit - The Desolation of Smaug 2013 Extended x264 720p Esub BluRay Dual Audio English Hindi Sadeemrdp GOPI SAHI


The Hobbit: The Desolation of Smaug (2013)


The dwarves, along with Bilbo Baggins and Gandalf the Grey, continue their quest to reclaim Erebor, their homeland, from Smaug. Bilbo Baggins is in possession of a mysterious and magical ring.

Director:

Peter Jackson

Writers:

Fran Walsh (screenplay), Philippa Boyens (screenplay) |3 more credits »

7.8/10

Directed byPeter Jackson
Produced by
Screenplay by
Based onThe Hobbit
by J. R. R. Tolkien
Starring
Music byHoward Shore
CinematographyAndrew Lesnie
Edited byJabez Olssen
Production
company
Distributed byWarner Bros. Pictures
Release date
  • 2 December 2013 (Los Angeles)
  • 12 December 2013 (New Zealand)
  • 13 December 2013 (United States)
Running time
161 minutes[1]
186 minutes (Extended)
Country
  • New Zealand[2]
  • United States[2]
LanguageEnglish
Budget$217–260 million[3][4]
Box office$958 million[5]




Format                         : Matroska
Format version                 : Version 4
File size                      : 1.44 GiB
Duration                       : 3 h 6 min
Overall bit rate               : 1 104 kb/s
Movie name                     : The Hobbit: The Desolation of Smaug 2013 Extended GOPI SAHI

Video
ID                             : 1
Format                         : AVC
Format/Info                    : Advanced Video Codec
Format profile                 : [email protected]
Format settings                : CABAC / 5 Ref Frames
Format settings, CABAC         : Yes
Format settings, Reference fra : 5 frames
Codec ID                       : V_MPEG4/ISO/AVC
Duration                       : 3 h 6 min
Bit rate                       : 899 kb/s
Width                          : 1 280 pixels
Height                         : 534 pixels
Display aspect ratio           : 2.40:1
Frame rate mode                : Constant
Frame rate                     : 23.976 (24000/1001) FPS
Color space                    : YUV
Chroma subsampling             : 4:2:0
Bit depth                      : 8 bits
Scan type                      : Progressive
Bits/(Pixel*Frame)             : 0.055
Stream size                    : 1.17 GiB (81%)
Title                          : GOPI SAHI
Writing library                : x264 core 157 r2935 545de2f

Audio #1
ID                             : 2
Format                         : AAC LC
Format/Info                    : Advanced Audio Codec Low Complexity
Codec ID                       : A_AAC-2
Duration                       : 3 h 6 min
Bit rate                       : 96.0 kb/s
Channel(s)                     : 2 channels
Channel layout                 : L R
Sampling rate                  : 48.0 kHz
Frame rate                     : 46.875 FPS (1024 SPF)
Compression mode               : Lossy
Delay relative to video        : -21 ms
Stream size                    : 129 MiB (9%)
Title                          : GOPI SAHI
Language                       : Hindi
Default                        : Yes
Forced                         : No

Audio #2
ID                             : 3
Format                         : AAC LC
Format/Info                    : Advanced Audio Codec Low Complexity
Codec ID                       : A_AAC-2
Duration                       : 3 h 6 min
Bit rate                       : 96.0 kb/s
Channel(s)                     : 2 channels
Channel layout                 : L R
Sampling rate                  : 48.0 kHz
Frame rate                     : 46.875 FPS (1024 SPF)
Compression mode               : Lossy
Delay relative to video        : -21 ms
Stream size                    : 129 MiB (9%)
Title                          : GOPI SAHI
Language                       : English
Default                        : No
Forced                         : No

Text
ID                             : 4
Format                         : PGS
Muxing mode                    : zlib
Codec ID                       : S_HDMV/PGS
Codec ID/Info                  : Picture based subtitle format used on BDs/HD-DVDs
Duration                       : 3 h 5 min
Bit rate                       : 22.3 kb/s
Count of elements              : 4576
Stream size                    : 29.5 MiB (2%)
Title                          : GOPI SAHI
Language                       : English
Default                        : Yes
Forced                         : Yes

Menu
00:00:00.000                   : :Chapter 1
00:07:33.495                   : :Chapter 2
00:12:00.386                   : :Chapter 3
00:12:59.654                   : :Chapter 4
00:15:55.455                   : :Chapter 5
00:20:57.173                   : :Chapter 6
00:23:15.519                   : :Chapter 7
00:25:52.926                   : :Chapter 8
00:29:59.381                   : :Chapter 9
00:38:14.042                   : :Chapter 10
00:46:43.926                   : :Chapter 11
00:49:46.358                   : :Chapter 12
00:53:19.655                   : :Chapter 13
00:55:10.349                   : :Chapter 14
00:58:07.901                   : :Chapter 15
01:08:42.452                   : :Chapter 16
01:12:22.421                   : :Chapter 17
01:15:45.833                   : :Chapter 18
01:19:10.246                   : :Chapter 19
01:22:46.920                   : :Chapter 20
01:25:09.771                   : :Chapter 21
01:28:07.908                   : :Chapter 22
01:31:15.804                   : :Chapter 23
01:36:02.757                   : :Chapter 24
01:37:36.059                   : :Chapter 25
01:40:35.571                   : :Chapter 26
01:45:16.644                   : :Chapter 27
01:48:44.560                   : :Chapter 28
01:50:31.875                   : :Chapter 29
01:52:36.625                   : :Chapter 30
01:53:08.657                   : :Chapter 31
01:59:16.566                   : :Chapter 32
02:07:11.874                   : :Chapter 33
02:07:39.360                   : :Chapter 34
02:09:22.880                   : :Chapter 35
02:12:48.627                   : :Chapter 36
02:22:00.929                   : :Chapter 37
02:22:43.597                   : :Chapter 38
02:23:18.173                   : :Chapter 39
02:24:56.396                   : :Chapter 40
02:26:45.088                   : :Chapter 41
02:29:18.908                   : :Chapter 42
02:33:13.142                   : :Chapter 43
02:34:57.705                   : :Chapter 44
02:36:13.239                   : :Chapter 45
02:37:46.040                   : :Chapter 46
02:39:08.956                   : :Chapter 47
02:41:40.107                   : :Chapter 48
02:44:06.086                   : :Chapter 49
02:51:16.683                   : :Chapter 50
02:56:05.722                   : :Chapter 51



Post a Comment

0 Comments