The Lord of the Rings The Two Towers 2002 EXTENDED x264 720p Esub BluRay Dual Audio English Hindi Sadeemrdp GOPI SAHI

The Lord of the Rings: The Two Towers (2002)

 
While Frodo and Sam edge closer to Mordor with the help of the shifty Gollum, the divided fellowship makes a stand against Sauron's new ally, Saruman, and his hordes of Isengard.

Director:

Peter Jackson

Writers:

J.R.R. Tolkien (novel), Fran Walsh (screenplay) |3 more credits »
8.7/10


Directed byPeter Jackson
Produced by
Screenplay by
Based onThe Two Towers
by J. R. R. Tolkien
Starring
Music byHoward Shore
CinematographyAndrew Lesnie
Edited by
Production
companies
Distributed byNew Line Cinema
Release date
  • 5 December 2002 (Ziegfeld Theatre)
  • 18 December 2002 (United States)
  • 19 December 2002 (New Zealand)
Running time
179 minutes[2]
226 minutes (extended)[3]
Country
  • New Zealand[1]
  • United States[1]
LanguageEnglish
Budget$94 million[4]
Box office$951.2 million[4]





General
Unique ID                      : 144410861296341880778076523833963529941 (0x6CA4852C417264A59E4526FE752746D5)
Complete name                  : D:\HiTLER JATT\The Lord of the Rings The Two Towers 2002 EXTENDED GOPI SAHI.mkv
Format                         : Matroska
Format version                 : Version 4
File size                      : 1.80 GiB
Duration                       : 4 h 23 min
Overall bit rate               : 979 kb/s
Movie name                     : The Lord of the Rings The Two Towers 2002 EXTENDED GOPI SAHI
Encoded date                   : UTC 2020-05-18 19:53:31
Writing application            : mkvmerge v46.0.0 ('No Deeper Escape') 32-bit
Writing library                : libebml v1.3.10 + libmatroska v1.5.2

Video
ID                             : 1
Format                         : AVC
Format/Info                    : Advanced Video Codec
Format profile                 : H[email protected]
Format settings                : CABAC / 5 Ref Frames
Format settings, CABAC         : Yes
Format settings, Reference fra : 5 frames
Codec ID                       : V_MPEG4/ISO/AVC
Duration                       : 3 h 55 min
Bit rate                       : 899 kb/s
Width                          : 1 280 pixels
Height                         : 536 pixels
Display aspect ratio           : 2.40:1
Frame rate mode                : Constant
Frame rate                     : 23.976 (24000/1001) FPS
Color space                    : YUV
Chroma subsampling             : 4:2:0
Bit depth                      : 8 bits
Scan type                      : Progressive
Bits/(Pixel*Frame)             : 0.055
Stream size                    : 1.48 GiB (82%)
Title                          : GOPI SAHI
Writing library                : x264 core 157 r2935 545de2f

Audio #1
ID                             : 2
Format                         : AAC LC
Format/Info                    : Advanced Audio Codec Low Complexity
Codec ID                       : A_AAC-2
Duration                       : 3 h 55 min
Bit rate                       : 96.0 kb/s
Channel(s)                     : 2 channels
Channel layout                 : L R
Sampling rate                  : 48.0 kHz
Frame rate                     : 46.875 FPS (1024 SPF)
Compression mode               : Lossy
Delay relative to video        : -21 ms
Stream size                    : 162 MiB (9%)
Title                          : GOPI SAHI
Language                       : Hindi
Default                        : Yes
Forced                         : No

Audio #2
ID                             : 3
Format                         : AAC LC
Format/Info                    : Advanced Audio Codec Low Complexity
Codec ID                       : A_AAC-2
Duration                       : 3 h 55 min
Bit rate                       : 96.0 kb/s
Channel(s)                     : 2 channels
Channel layout                 : L R
Sampling rate                  : 48.0 kHz
Frame rate                     : 46.875 FPS (1024 SPF)
Compression mode               : Lossy
Delay relative to video        : -21 ms
Stream size                    : 163 MiB (9%)
Title                          : GOPI SAHI
Language                       : English
Default                        : No
Forced                         : No

Text
ID                             : 4
Format                         : UTF-8
Codec ID                       : S_TEXT/UTF8
Codec ID/Info                  : UTF-8 Plain Text
Duration                       : 4 h 22 min
Bit rate                       : 28 b/s
Count of elements              : 2146
Stream size                    : 54.9 KiB (0%)
Title                          : GOPI SAHI
Language                       : English
Default                        : Yes
Forced                         : No



Post a Comment

0 Comments