The Matrix 1999 x264 720p Esub BluRay Dual Audio English Hindi GOPI SAHI

The Matrix (1999)

A computer hacker learns from mysterious rebels about the true nature of his reality and his role in the war against its controllers.

Directors:

Lana Wachowski (as The Wachowski Brothers), Lilly Wachowski (as The Wachowski Brothers)

Writers:

Lilly Wachowski (as The Wachowski Brothers), Lana Wachowski (as The Wachowski Brothers)

8.7/10
1,601,258
Directed byThe Wachowskis[a]
Produced byJoel Silver
Written byThe Wachowskis
Starring
Music byDon Davis
CinematographyBill Pope
Edited byZach Staenberg
Production
companies
Distributed by
Release date
  • March 31, 1999 (United States)
  • April 8, 1999 (Australia)
Running time
136 minutes[1]
Country
LanguageEnglish
Budget$63 million[3]
Box office$465.3 million[3]



The Matrix 1999 x264 720p Esub BluRay Dual Audio English Hindi GOPI SAHI

Format : Matroska
Format version : Version 4 / Version 2
File size : 1.06 GiB
Duration : 2 h 16 min
Overall bit rate : 1 110 kb/s
Movie name : 1.The Matrix 1999 GOPI SAHI
Encoded date : UTC 2020-04-30 14:18:47
Writing application : mkvmerge v36.0.0 ('Is That Jazz?') 64-bit
Writing library : libebml v1.3.9 + libmatroska v1.5.2
Cover : Yes
Attachments : Cover.jpg

Video
ID : 1
Format : AVC
Format/Info : Advanced Video Codec
Format profile : [email protected]
Format settings : CABAC / 5 Ref Frames
Format settings, CABAC : Yes
Format settings, ReFrames : 5 frames
Codec ID : V_MPEG4/ISO/AVC
Duration : 2 h 16 min
Bit rate : 899 kb/s
Width : 1 280 pixels
Height : 534 pixels
Display aspect ratio : 2.40:1
Frame rate mode : Constant
Frame rate : 23.976 (24000/1001) FPS
Color space : YUV
Chroma subsampling : 4:2:0
Bit depth : 8 bits
Scan type : Progressive
Bits/(Pixel*Frame) : 0.055
Stream size : 876 MiB (81%)
Title : GOPI SAHI
Writing library : x264 core 148

Audio #1
ID : 2
Format : AAC
Format/Info : Advanced Audio Codec
Format profile : LC
Codec ID : A_AAC-2
Duration : 2 h 16 min
Bit rate : 96.0 kb/s
Channel(s) : 2 channels
Channel positions : Front: L R
Sampling rate : 48.0 kHz
Frame rate : 46.875 FPS (1024 SPF)
Compression mode : Lossy
Delay relative to video : 1 s 279 ms
Stream size : 93.9 MiB (9%)
Title : GOPI SAHI
Language : Hindi
Default : Yes
Forced : No

Audio #2
ID : 3
Format : AAC
Format/Info : Advanced Audio Codec
Format profile : LC
Codec ID : A_AAC-2
Duration : 2 h 16 min
Bit rate : 96.0 kb/s
Channel(s) : 2 channels
Channel positions : Front: L R
Sampling rate : 48.0 kHz
Frame rate : 46.875 FPS (1024 SPF)
Compression mode : Lossy
Delay relative to video : 19 ms
Stream size : 94.0 MiB (9%)
Title : GOPI SAHI
Language : English
Default : No
Forced : No

Text #1
ID : 4
Format : VobSub
Muxing mode : zlib
Codec ID : S_VOBSUB
Codec ID/Info : Picture based subtitle format used on DVDs
Duration : 2 h 15 min
Bit rate : 9 494 b/s
Count of elements : 1278
Stream size : 9.20 MiB (1%)
Title : GOPI SAHI
Language : English
Default : No
Forced : No

Text #2
ID : 5
Format : PGS
Muxing mode : zlib
Codec ID : S_HDMV/PGS
Codec ID/Info : Picture based subtitle format used on BDs/HD-DVDs
Duration : 2 h 15 min
Bit rate : 22.9 kb/s
Count of elements : 2746
Stream size : 22.2 MiB (2%)
Title : GOPI SAHI
Language : English
Default : No
Forced : No

Menu
00:00:00.000 : :Trinity in a Jam
00:03:26.957 : :Impossible Pursuit
00:06:36.897 : :Follow Instructions
00:09:43.958 : :The Question
00:11:59.636 : :"They're Coming for You"
00:16:48.591 : :Unable to Speak
00:21:34.752 : :Getting the Bug Out
00:25:09.800 : :Morpheus' Proposal
00:28:52.481 : :Down the Rabbit Hole
00:32:26.361 : :Slimy Rebirth
00:35:23.204 : :Nebuchadnezzar's Crew
00:38:42.111 : :The Real World
00:44:23.828 : :The Search Is Over
00:46:34.709 : :Training Begins
00:48:59.145 : :Morpheus/Neo Matchup
00:53:32.626 : :First Jump
00:56:33.307 : :The Gatekeepers
00:59:02.539 : :Running Silent and Deep
01:01:09.875 : :Dealing for Bliss
01:05:17.789 : :Off to See the Oracle
01:07:48.022 : :There Is No Spoon
01:12:34.725 : :Choices...and a Cookie
01:17:50.916 : :Glitch in the Matrix
01:21:04.318 : :One Left Behide
01:25:06.643 : :Heroes Unplugged
01:29:46.423 : :Cypher's Burnout
01:31:28.858 : :Matters of Belief
01:37:26.466 : :Virus to Be Cured
01:41:06.310 : :Lobby Shooting Spree
01:44:21.547 : :Dodge This
01:47:01.665 : :Gotcha
01:50:19.780 : :Rooftop Rescue
01:52:58.021 : :Subway Showdown
01:56:38.241 : :"My Name Is Neo"
01:58:50.624 : :Sentinels Attack
02:02:28.633 : :"He Is the One"
02:05:43.036 : :Final Connections
02:08:48.095 : :End Credits ("Wake Up Rock Is Dead")