The Matrix Reloaded 2003 x264 720p Esub BluRay Dual Audio English Hindi GOPI SAHI


The Matrix Reloaded (2003)

 
Neo and his allies race against time before the machines discover the city of Zion and destroy it. While seeking the truth about the Matrix, Neo must save Trinity from a dark fate within his dreams.

Directors:

Lana Wachowski (as The Wachowski Brothers), Lilly Wachowski (as The Wachowski Brothers)

Writers:

Lilly Wachowski (as The Wachowski Brothers), Lana Wachowski (as The Wachowski Brothers) |2 more credits »
7.2/10


Directed byThe Wachowskis[a]
Produced byJoel Silver
Written byThe Wachowskis
Based onCharacters
by The Wachowskis
Starring
Music byDon Davis
CinematographyBill Pope
Edited byZach Staenberg
Production
companies
Distributed byWarner Bros. Pictures
Release date
Running time
138 minutes[1]
CountryUnited States[2][3]
LanguageEnglish
Budget$127[4]–150[5] million
Box office$741.8 million[5]




The Matrix Reloaded 2003 x264 720p Esub BluRay Dual Audio English Hindi GOPI SAHI

Format                                   : Matroska
Format version                           : Version 4 / Version 2
File size                                : 1.09 GiB
Duration                                 : 2 h 18 min
Overall bit rate                         : 1 131 kb/s
Movie name                               : The Matrix Reloaded 2003 GOPI SAHI
Encoded date                             : UTC 2020-05-01 01:11:46
Writing application                      : mkvmerge v36.0.0 ('Is That Jazz?') 64-bit
Writing library                          : libebml v1.3.9 + libmatroska v1.5.2
Cover                                    : Yes
Attachments                              : Cover.jpg

Video
ID                                       : 1
Format                                   : AVC
Format/Info                              : Advanced Video Codec
Format profile                           : [email protected]
Format settings                          : CABAC / 5 Ref Frames
Format settings, CABAC                   : Yes
Format settings, ReFrames                : 5 frames
Codec ID                                 : V_MPEG4/ISO/AVC
Duration                                 : 2 h 18 min
Bit rate                                 : 899 kb/s
Width                                    : 1 280 pixels
Height                                   : 534 pixels
Display aspect ratio                     : 2.40:1
Frame rate mode                          : Constant
Frame rate                               : 23.976 (24000/1001) FPS
Color space                              : YUV
Chroma subsampling                       : 4:2:0
Bit depth                                : 8 bits
Scan type                                : Progressive
Bits/(Pixel*Frame)                       : 0.055
Stream size                              : 889 MiB (79%)
Title                                    : GOPI SAHI
Writing library                          : x264 core 148

Audio #1
ID                                       : 2
Format                                   : AAC
Format/Info                              : Advanced Audio Codec
Format profile                           : LC
Codec ID                                 : A_AAC-2
Duration                                 : 2 h 18 min
Bit rate                                 : 96.0 kb/s
Channel(s)                               : 2 channels
Channel positions                        : Front: L R
Sampling rate                            : 48.0 kHz
Frame rate                               : 46.875 FPS (1024 SPF)
Compression mode                         : Lossy
Delay relative to video                  : 1 s 853 ms
Stream size                              : 95.4 MiB (9%)
Title                                    : GOPI SAHI
Language                                 : Hindi
Default                                  : Yes
Forced                                   : No

Audio #2
ID                                       : 3
Format                                   : AAC
Format/Info                              : Advanced Audio Codec
Format profile                           : LC
Codec ID                                 : A_AAC-2
Duration                                 : 2 h 18 min
Bit rate                                 : 96.0 kb/s
Channel(s)                               : 2 channels
Channel positions                        : Front: L R
Sampling rate                            : 48.0 kHz
Frame rate                               : 46.875 FPS (1024 SPF)
Compression mode                         : Lossy
Delay relative to video                  : 19 ms
Stream size                              : 95.3 MiB (9%)
Title                                    : GOPI SAHI
Language                                 : English
Default                                  : No
Forced                                   : No

Text #1
ID                                       : 4
Format                                   : PGS
Muxing mode                              : zlib
Codec ID                                 : S_HDMV/PGS
Codec ID/Info                            : Picture based subtitle format used on BDs/HD-DVDs
Duration                                 : 2 h 16 min
Bit rate                                 : 26.3 kb/s
Count of elements                        : 2458
Stream size                              : 25.7 MiB (2%)
Title                                    : GOPI SAHI
Language                                 : English
Default                                  : No
Forced                                   : No

Text #2
ID                                       : 5
Format                                   : PGS
Muxing mode                              : zlib
Codec ID                                 : S_HDMV/PGS
Codec ID/Info                            : Picture based subtitle format used on BDs/HD-DVDs
Duration                                 : 2 h 18 min
Bit rate                                 : 57.6 kb/s
Count of elements                        : 4241
Stream size                              : 56.9 MiB (5%)
Title                                    : GOPI SAHI
Language                                 : English
Default                                  : No
Forced                                   : No

Menu
00:00:00.000                             : :Trinity's In
00:03:52.357                             : :Trust Me
00:08:57.370                             : :Upgrades
00:12:18.947                             : :Zion
00:16:26.444                             : :Matter of Time
00:19:45.226                             : :Homecomings
00:23:31.410                             : :We Are Still Here
00:27:28.856                             : :Celebrating Humanity
00:32:03.422                             : :Smith Will Suffice
00:33:45.315                             : :What Is Control?
00:37:59.444                             : :Summoned
00:40:57.747                             : :Seraph
00:43:47.083                             : :The Oracle
00:50:44.750                             : :Swarm of Smiths
00:55:10.641                             : :Sticking It to Them
01:00:05.268                             : :The Volunteer
01:02:51.768                             : :Taste of Merovingian
01:08:54.297                             : :Persephone's Kiss
01:13:08.926                             : :Unlocking the Keymaker
01:16:23.496                             : :Blade Leapers
01:20:33.996                             : :Twin Trouble
01:22:49.214                             : :Freeway Entrance
01:26:14.586                             : :Cross-Vehicular Traffic
01:29:54.973                             : :Biker Girl
01:32:52.984                             : :Trucks Amuck
01:37:12.869                             : :The Reason We're Here
01:40:53.381                             : :Sacrifice and Sabotage
01:44:59.835                             : :So Many of Me
01:48:14.154                             : :The Architect
01:52:27.616                             : :The One's Function
01:55:45.021                             : :Neo's Choice
01:57:39.594                             : :Not Letting Go
02:01:53.598                             : :Bomb's Target
02:04:20.578                             : :Feeling the Enemy
02:07:06.160                             : :End Credits
02:16:31.767                             : :The Matrix Revolutions Trailer





Post a Comment

0 Comments