The Matrix Revolutions 2003 x264 720p Esub BluRay Dual Audio English Hindi GOPI SAHI

The Matrix Revolutions (2003)


The human city of Zion defends itself against the massive invasion of the machines as Neo fights to end the war at another front while also opposing the rogue Agent Smith.

Directors:

Lana Wachowski (as The Wachowski Brothers), Lilly Wachowski (as The Wachowski Brothers)

Writers:

Lilly Wachowski (as The Wachowski Brothers), Lana Wachowski (as The Wachowski Brothers) |2 more credits »

6.8/10

Directed byThe Wachowskis[a]
Produced byJoel Silver
Written byThe Wachowskis
Based onCharacters
by The Wachowskis
Starring
Music byDon Davis
CinematographyBill Pope
Edited byZach Staenberg
Production
companies
Distributed byWarner Bros. Pictures
Release date
  • November 5, 2003
Running time
129 minutes[1]
CountryUnited States[2][3]
LanguageEnglish
Budget$110–150 million[4][5]
Box office$427.3 million[5]


The Matrix Revolutions 2003 x264 720p Esub BluRay Dual Audio English Hindi GOPI SAHI

Format                                   : Matroska
Format version                           : Version 4 / Version 2
File size                                : 1 022 MiB
Duration                                 : 2 h 9 min
Overall bit rate                         : 1 105 kb/s
Movie name                               : 3. The Matrix Revolutions 2003 GOPI SAHI

Video
ID                                       : 1
Format                                   : AVC
Format/Info                              : Advanced Video Codec
Format profile                           : [email protected]
Format settings                          : CABAC / 5 Ref Frames
Format settings, CABAC                   : Yes
Format settings, ReFrames                : 5 frames
Codec ID                                 : V_MPEG4/ISO/AVC
Duration                                 : 2 h 9 min
Bit rate                                 : 899 kb/s
Width                                    : 1 280 pixels
Height                                   : 534 pixels
Display aspect ratio                     : 2.40:1
Frame rate mode                          : Constant
Frame rate                               : 23.976 (24000/1001) FPS
Color space                              : YUV
Chroma subsampling                       : 4:2:0
Bit depth                                : 8 bits
Scan type                                : Progressive
Bits/(Pixel*Frame)                       : 0.055
Stream size                              : 831 MiB (81%)
Title                                    : GOPI SAHI
Writing library                          : x264 core 148

Audio #1
ID                                       : 2
Format                                   : AAC
Format/Info                              : Advanced Audio Codec
Format profile                           : LC
Codec ID                                 : A_AAC-2
Duration                                 : 2 h 9 min
Bit rate                                 : 96.0 kb/s
Channel(s)                               : 2 channels
Channel positions                        : Front: L R
Sampling rate                            : 48.0 kHz
Frame rate                               : 46.875 FPS (1024 SPF)
Compression mode                         : Lossy
Delay relative to video                  : 2 s 717 ms
Stream size                              : 89.2 MiB (9%)
Title                                    : GOPI SAHI
Language                                 : Hindi
Default                                  : Yes
Forced                                   : No

Audio #2
ID                                       : 3
Format                                   : AAC
Format/Info                              : Advanced Audio Codec
Format profile                           : LC
Codec ID                                 : A_AAC-2
Duration                                 : 2 h 9 min
Bit rate                                 : 96.0 kb/s
Channel(s)                               : 2 channels
Channel positions                        : Front: L R
Sampling rate                            : 48.0 kHz
Frame rate                               : 46.875 FPS (1024 SPF)
Compression mode                         : Lossy
Delay relative to video                  : 19 ms
Stream size                              : 89.2 MiB (9%)
Title                                    : GOPI SAHI
Language                                 : English
Default                                  : No
Forced                                   : No

Text
ID                                       : 4
Format                                   : PGS
Muxing mode                              : zlib
Codec ID                                 : S_HDMV/PGS
Codec ID/Info                            : Picture based subtitle format used on BDs/HD-DVDs
Duration                                 : 2 h 7 min
Bit rate                                 : 23.1 kb/s
Count of elements                        : 2220
Stream size                              : 21.1 MiB (2%)
Title                                    : GOPI SAHI
Language                                 : English
Default                                  : No
Forced                                   : No

Menu
00:00:00.000                             : :20 Hours to Go
00:03:57.404                             : :Trapped
00:07:34.996                             : :The Connection Matters
00:10:21.871                             : :Down Here I'm God
00:14:46.469                             : :Coat-Check Chaos
00:18:00.746                             : :Interesting Deal
00:23:35.080                             : :The End Is Coming
00:30:08.265                             : :We Meet at Last
00:35:37.636                             : :The Logos Found
00:39:36.124                             : :Volunteers
00:43:00.828                             : :I Believe in Him
00:46:45.261                             : :Nothing's Changed
00:49:04.525                             : :Stowaway
00:51:55.571                             : :See Your Enemy
00:58:02.604                             : :Give 'em Hell
01:00:21.159                             : :Detected
01:02:31.748                             : :Breaching the Dome
01:08:02.912                             : :Storming Sentinels
01:10:31.310                             : :Trying to Keep Up
01:14:35.763                             : :Unfinished Business
01:18:25.326                             : :Hell of a Pilot
01:23:10.903                             : :Report to the Council
01:25:57.778                             : :Believers
01:29:15.308                             : :Glimpse of the Sky
01:31:53.591                             : :Saying What Matters
01:36:53.516                             : :A Truce
01:41:57.278                             : :It Ends Tonight
01:44:55.206                             : :Urban Splash
01:48:08.607                             : :Neo's Choice
01:51:32.769                             : :Inevitable and Over
01:55:07.859                             : :Real Peace
01:57:33.171                             : :Freedom and Sunlight
02:00:14.290                             : :End Credits



Post a Comment

0 Comments