The Terminal 2004 x264 720p Esub BluRay Dual Audio English Hindi GOPI SAHI

The Terminal (2004)


An Eastern European tourist unexpectedly finds himself stranded in JFK airport, and must take up temporary residence there.

Writers:

Andrew Niccol (story), Sacha Gervasi (story) |2 more credits »

7.4/10
389,115
Directed bySteven Spielberg
Produced by
Screenplay by
Story by
Starring
Music byJohn Williams
CinematographyJanusz Kamiński
Edited byMichael Kahn
Production
company
Distributed byDreamWorks Pictures
Release date
  • June 18, 2004
Running time
128 minutes
CountryUnited States
LanguageEnglish
Budget$60 million[1]
Box office$219.4 million[1]







Format                         : Matroska
Format version                 : Version 4
File size                      : 1 008 MiB
Duration                       : 2 h 8 min
Overall bit rate               : 1 095 kb/s
Movie name                     : The Terminal 2004 GOPI SAHI
Encoded date                   : UTC 2020-05-14 18:56:25
Writing application            : mkvmerge v46.0.0 ('No Deeper Escape') 32-bit
Writing library                : libebml v1.3.10 + libmatroska v1.5.2

Video
ID                             : 1
Format                         : AVC
Format/Info                    : Advanced Video Codec
Format profile                 : [email protected]
Format settings                : CABAC / 5 Ref Frames
Format settings, CABAC         : Yes
Format settings, Reference fra : 5 frames
Codec ID                       : V_MPEG4/ISO/AVC
Duration                       : 2 h 8 min
Bit rate                       : 899 kb/s
Width                          : 1 280 pixels
Height                         : 690 pixels
Display aspect ratio           : 1.85:1
Frame rate mode                : Constant
Frame rate                     : 23.976 (24000/1001) FPS
Color space                    : YUV
Chroma subsampling             : 4:2:0
Bit depth                      : 8 bits
Scan type                      : Progressive
Bits/(Pixel*Frame)             : 0.042
Stream size                    : 828 MiB (82%)
Title                          : GOPI SAHI
Writing library                : x264 core 157 r2935 545de2f
Audio #1
ID                             : 2
Format                         : AAC LC
Format/Info                    : Advanced Audio Codec Low Complexity
Codec ID                       : A_AAC-2
Duration                       : 2 h 8 min
Bit rate                       : 96.0 kb/s
Channel(s)                     : 2 channels
Channel layout                 : L R
Sampling rate                  : 48.0 kHz
Frame rate                     : 46.875 FPS (1024 SPF)
Compression mode               : Lossy
Delay relative to video        : -42 ms
Stream size                    : 88.8 MiB (9%)
Title                          : GOPI SAHI
Language                       : Hindi
Default                        : Yes
Forced                         : No

Audio #2
ID                             : 3
Format                         : AAC LC
Format/Info                    : Advanced Audio Codec Low Complexity
Codec ID                       : A_AAC-2
Duration                       : 2 h 8 min
Bit rate                       : 96.0 kb/s
Channel(s)                     : 2 channels
Channel layout                 : L R
Sampling rate                  : 48.0 kHz
Frame rate                     : 46.875 FPS (1024 SPF)
Compression mode               : Lossy
Delay relative to video        : -42 ms
Stream size                    : 89.0 MiB (9%)
Title                          : GOPI SAHI
Language                       : English
Default                        : No
Forced                         : No

Text
ID                             : 4
Format                         : ASS
Codec ID                       : S_TEXT/ASS
Codec ID/Info                  : Advanced Sub Station Alpha
Duration                       : 2 h 0 min
Bit rate                       : 85 b/s
Count of elements              : 1336
Compression mode               : Lossless
Stream size                    : 75.3 KiB (0%)
Title                          : GOPI SAHI
Language                       : English
Default                        : Yes
Forced                         : No

Menu
00:00:00.021                   : :1. Main Title
00:03:15.216                   : :2. Crack in the System
00:08:59.435                   : :3. America Closed
00:14:02.071                   : :4. Do You Have an Appointment?
00:15:27.281                   : :5. Gate 67
00:18:34.468                   : :6. Acting Field Commissioner
00:20:25.662                   : :7. Unacceptable
00:23:04.279                   : :8. Unhooking the Fish
00:27:40.471                   : :9. Sensible Heels
00:29:41.884                   : :10. The Carts
00:32:28.634                   : :11. 50/50
00:35:06.334                   : :12. You Feed Me, I'll Feed You
00:41:22.167                   : :13. Crowded
00:47:21.318                   : :14. Observations
00:52:10.190                   : :15. The Position Has Been Filled
00:57:34.138                   : :16. After Hours
01:00:36.362                   : :17. Rewriting History
01:06:00.144                   : :18. The Inspection
01:16:04.581                   : :19. If I Stay, You Stay
01:18:18.673                   : :20. The Dinner Appointment
01:29:05.695                   : :21. Tokens of Love
01:32:53.881                   : :22. Why Viktor Navorski?
01:35:16.023                   : :23. Keeping Promises
01:42:00.135                   : :24. The War Is Over
01:48:59.512                   : :25. Family
01:51:01.092                   : :26. Viktor's Leaving!
01:57:51.961                   : :27. 161 Lexington
02:01:33.808                   : :28. End Credits







GDRIVE FILE COPY




Post a Comment

0 Comments