Wanted 2008 x264 720p Esub BluRay Dual Audio English Hindi Sadeemrdp GOPI SAHI

Wanted (2008)

A frustrated office worker learns that he is the son of a professional assassin and that he shares his father's superhuman killing abilities.

Writers:

Michael Brandt (screenplay), Derek Haas (screenplay) |5 more credits »

6.7/10
351,903

Directed byTimur Bekmambetov
Produced by
Screenplay by
Story by
  • Michael Brandt
  • Derek Haas
Based onWanted
by Mark Millar
J. G. Jones
Starring
Music byDanny Elfman
CinematographyMitchell Amundsen
Edited by
Production
companies
Distributed by
Release date
  • June 12, 2008 (London)
  • June 27, 2008 (United States)
Running time
110 minutes[2]
Country
LanguageEnglish
Budget$75 million[4]
Box office$341.4 million[4]




Format                         : Matroska
Format version                 : Version 4
File size                      : 861 MiB
Duration                       : 1 h 50 min
Overall bit rate               : 1 094 kb/s
Movie name                     : Wanted 2008 GOPI SAHI

Video
ID                             : 1
Format                         : AVC
Format/Info                    : Advanced Video Codec
Format profile                 : [email protected]
Format settings                : CABAC / 5 Ref Frames
Format settings, CABAC         : Yes
Format settings, Reference fra : 5 frames
Codec ID                       : V_MPEG4/ISO/AVC
Duration                       : 1 h 50 min
Bit rate                       : 899 kb/s
Width                          : 1 280 pixels
Height                         : 544 pixels
Display aspect ratio           : 2.35:1
Frame rate mode                : Constant
Frame rate                     : 23.976 (24000/1001) FPS
Color space                    : YUV
Chroma subsampling             : 4:2:0
Bit depth                      : 8 bits
Scan type                      : Progressive
Bits/(Pixel*Frame)             : 0.054
Stream size                    : 707 MiB (82%)
Title                          : GOPI SAHI
Writing library                : x264 core 157 r2935 545de2f

Audio #1
ID                             : 2
Format                         : AAC LC
Format/Info                    : Advanced Audio Codec Low Complexity
Codec ID                       : A_AAC-2
Duration                       : 1 h 49 min
Bit rate                       : 96.0 kb/s
Channel(s)                     : 2 channels
Channel layout                 : L R
Sampling rate                  : 48.0 kHz
Frame rate                     : 46.875 FPS (1024 SPF)
Compression mode               : Lossy
Delay relative to video        : 707 ms
Stream size                    : 75.8 MiB (9%)
Title                          : GOPI SAHI
Language                       : Hindi
Default                        : Yes
Forced                         : No

Audio #2
ID                             : 3
Format                         : AAC LC
Format/Info                    : Advanced Audio Codec Low Complexity
Codec ID                       : A_AAC-2
Duration                       : 1 h 50 min
Bit rate                       : 96.0 kb/s
Channel(s)                     : 2 channels
Channel layout                 : L R
Sampling rate                  : 48.0 kHz
Frame rate                     : 46.875 FPS (1024 SPF)
Compression mode               : Lossy
Delay relative to video        : -21 ms
Stream size                    : 75.9 MiB (9%)
Title                          : GOPI SAHI
Language                       : English
Default                        : No
Forced                         : No

Text
ID                             : 4
Format                         : UTF-8
Codec ID                       : S_TEXT/UTF8
Codec ID/Info                  : UTF-8 Plain Text
Duration                       : 1 h 42 min
Bit rate                       : 34 b/s
Count of elements              : 819
Stream size                    : 26.2 KiB (0%)
Title                          : GOPI SAHI
Language                       : English
Default                        : Yes
Forced                         : Yes