World War Z 2013 Unrated x264 720p Esub BluRay Dual Audio English Hindi Sadeemrdp @ GOPI SAHI

World War Z (2013)


Former United Nations employee Gerry Lane traverses the world in a race against time to stop a zombie pandemic that is toppling armies and governments and threatens to destroy humanity itself.

Director:

Marc Forster

Writers:

Matthew Michael Carnahan (screenplay), Drew Goddard (screenplay) |4 more credits »

7.0/10
582,641
Directed byMarc Forster
Produced by
Screenplay by
Story by
Based onWorld War Z
by Max Brooks
StarringBrad Pitt
Music byMarco Beltrami
Cinematography
Edited by
Production
company
Distributed byParamount Pictures
Release date
Running time
116 minutes[3]
CountryUnited States[4][5]
LanguageEnglish
Budget$190–269 million[6][7][8]
Box office$540 million[9]



World War Z 2013 Unrated  x264 720p Esub BluRay Dual Audio English Hindi Sadeemrdp @ GOPI SAHI

Format                         : Matroska
Format version                 : Version 4
File size                      : 980 MiB
Duration                       : 2 h 3 min
Overall bit rate               : 1 113 kb/s
Movie name                     : World War Z 2013 Unrated  GOPI SAHI
Video
ID                             : 1
Format                         : AVC
Format/Info                    : Advanced Video Codec
Format profile                 : [email protected]
Format settings                : CABAC / 5 Ref Frames
Format settings, CABAC         : Yes
Format settings, Reference fra : 5 frames
Codec ID                       : V_MPEG4/ISO/AVC
Duration                       : 2 h 3 min
Bit rate                       : 899 kb/s
Width                          : 1 280 pixels
Height                         : 534 pixels
Display aspect ratio           : 2.40:1
Frame rate mode                : Constant
Frame rate                     : 23.976 (24000/1001) FPS
Color space                    : YUV
Chroma subsampling             : 4:2:0
Bit depth                      : 8 bits
Scan type                      : Progressive
Bits/(Pixel*Frame)             : 0.055
Stream size                    : 791 MiB (81%)
Title                          : GOPI SAHI
Writing library                : x264 core 157 r2935 545de2f

Audio #1
ID                             : 2
Format                         : AAC LC
Format/Info                    : Advanced Audio Codec Low Complexity
Codec ID                       : A_AAC-2
Duration                       : 2 h 3 min
Bit rate                       : 96.0 kb/s
Channel(s)                     : 2 channels
Channel layout                 : L R
Sampling rate                  : 48.0 kHz
Frame rate                     : 46.875 FPS (1024 SPF)
Compression mode               : Lossy
Delay relative to video        : -21 ms
Stream size                    : 84.8 MiB (9%)
Title                          : GOPI SAHI
Language                       : Hindi
Default                        : Yes
Forced                         : No

Audio #2
ID                             : 3
Format                         : AAC LC
Format/Info                    : Advanced Audio Codec Low Complexity
Codec ID                       : A_AAC-2
Duration                       : 2 h 3 min
Bit rate                       : 96.0 kb/s
Channel(s)                     : 2 channels
Channel layout                 : L R
Sampling rate                  : 48.0 kHz
Frame rate                     : 46.875 FPS (1024 SPF)
Compression mode               : Lossy
Delay relative to video        : -21 ms
Stream size                    : 84.8 MiB (9%)
Title                          : GOPI SAHI
Language                       : English
Default                        : No
Forced                         : No

Text #1
ID                             : 4
Format                         : PGS
Muxing mode                    : zlib
Codec ID                       : S_HDMV/PGS
Codec ID/Info                  : Picture based subtitle format used on BDs/HD-DVDs
Duration                       : 1 h 54 min
Bit rate                       : 27.9 kb/s
Count of elements              : 2496
Stream size                    : 22.8 MiB (2%)
Title                          : GOPI SAHI
Language                       : English
Default                        : Yes
Forced                         : Yes

Text #2
ID                             : 5
Format                         : PGS
Muxing mode                    : zlib
Codec ID                       : S_HDMV/PGS
Codec ID/Info                  : Picture based subtitle format used on BDs/HD-DVDs
Duration                       : 1 h 54 min
Bit rate                       : 35.2 kb/s
Count of elements              : 3042
Stream size                    : 28.7 MiB (3%)
Title                          : GOPI SAHI
Language                       : English
Default                        : No
Forced                         : No

Text #3
ID                             : 6
Format                         : PGS
Muxing mode                    : zlib
Codec ID                       : S_HDMV/PGS
Codec ID/Info                  : Picture based subtitle format used on BDs/HD-DVDs
Duration                       : 52 min 37 s
Bit rate                       : 436 b/s
Count of elements              : 18
Stream size                    : 168 KiB (0%)
Title                          : GOPI SAHI
Language                       : English
Default                        : No
Forced                         : Yes

Menu
00:00:00.000                   : en:Chapter 1
00:05:05.180                   : en:Chapter 2
00:13:54.000                   : en:Chapter 3
00:22:43.195                   : en:Chapter 4
00:29:46.034                   : en:Chapter 5
00:35:21.494                   : en:Chapter 6
00:42:23.458                   : en:Chapter 7
00:52:37.946                   : en:Chapter 8
00:58:53.822                   : en:Chapter 9
01:07:18.868                   : en:Chapter 10
01:15:11.757                   : en:Chapter 11
01:24:02.037                   : en:Chapter 12
01:29:08.802                   : en:Chapter 13
01:34:50.518                   : en:Chapter 14
01:43:45.469                   : en:Chapter 15
01:52:17.981                   : en:Chapter 16
01:55:51.653                   : en:Chapter 17