You Don't Mess With the Zohan 2008 x264 720p Esub BluRay Dual Audio English Hindi Sadeemrdp GOPI SAHI

You Don't Mess with the Zohan (2008)

PG-13 | |Comedy |6 June 2008 (USA)
An Israeli Special Forces Soldier fakes his death so he can re-emerge in New York City as a hair stylist.

Director:

Dennis Dugan

5.5/10

Directed byDennis Dugan
Produced by
Written by
Starring
Music byRupert Gregson-Williams
CinematographyMichael Barrett
Edited byTom Costain
Production
company
Distributed bySony Pictures Releasing
Release date
  • June 6, 2008
Running time
112 minutes[1]
CountryUnited States
LanguageEnglish
Budget$90 million[2]
Box office$204.3 million[2]



Format                         : Matroska
Format version                 : Version 4
File size                      : 911 MiB
Duration                       : 1 h 56 min
Overall bit rate               : 1 089 kb/s
Movie name                     : You Don't Mess With the Zohan 2008 GOPI SAHI
Encoded date                   : UTC 2020-05-24 12:00:17
Writing application            : mkvmerge v46.0.0 ('No Deeper Escape') 32-bit
Writing library                : libebml v1.3.10 + libmatroska v1.5.2

Video
ID                             : 1
Format                         : AVC
Format/Info                    : Advanced Video Codec
Format profile                 : [email protected]
Format settings                : CABAC / 5 Ref Frames
Format settings, CABAC         : Yes
Format settings, Reference fra : 5 frames
Codec ID                       : V_MPEG4/ISO/AVC
Duration                       : 1 h 56 min
Bit rate                       : 899 kb/s
Width                          : 1 280 pixels
Height                         : 694 pixels
Display aspect ratio           : 1.85:1
Frame rate mode                : Constant
Frame rate                     : 23.976 (24000/1001) FPS
Color space                    : YUV
Chroma subsampling             : 4:2:0
Bit depth                      : 8 bits
Scan type                      : Progressive
Bits/(Pixel*Frame)             : 0.042
Stream size                    : 751 MiB (82%)
Title                          : GOPI SAHI
Writing library                : x264 core 157 r2935 545de2f

Audio #1
ID                             : 2
Format                         : AAC LC
Format/Info                    : Advanced Audio Codec Low Complexity
Codec ID                       : A_AAC-2
Duration                       : 1 h 52 min
Bit rate                       : 96.0 kb/s
Channel(s)                     : 2 channels
Channel layout                 : L R
Sampling rate                  : 48.0 kHz
Frame rate                     : 46.875 FPS (1024 SPF)
Compression mode               : Lossy
Delay relative to video        : -21 ms
Stream size                    : 77.0 MiB (8%)
Title                          : GOPI SAHI
Language                       : Hindi
Default                        : Yes
Forced                         : No

Audio #2
ID                             : 3
Format                         : AAC LC
Format/Info                    : Advanced Audio Codec Low Complexity
Codec ID                       : A_AAC-2
Duration                       : 1 h 56 min
Bit rate                       : 96.0 kb/s
Channel(s)                     : 2 channels
Channel layout                 : L R
Sampling rate                  : 48.0 kHz
Frame rate                     : 46.875 FPS (1024 SPF)
Compression mode               : Lossy
Delay relative to video        : -21 ms
Stream size                    : 80.5 MiB (9%)
Title                          : GOPI SAHI
Language                       : English
Default                        : No
Forced                         : No

Text
ID                             : 4
Format                         : UTF-8
Codec ID                       : S_TEXT/UTF8
Codec ID/Info                  : UTF-8 Plain Text
Duration                       : 1 h 47 min
Bit rate                       : 70 b/s
Count of elements              : 1625
Stream size                    : 55.6 KiB (0%)
Title                          : GOPI SAHI
Language                       : English
Default                        : Yes
Forced                         : No

Menu
00:00:00.000                   : :Chapter 1
00:07:48.093                   : :Chapter 2
00:13:38.568                   : :Chapter 3
00:19:05.102                   : :Chapter 4
00:28:13.025                   : :Chapter 5
00:34:19.432                   : :Chapter 6
00:41:51.134                   : :Chapter 7
00:47:51.869                   : :Chapter 8
00:54:41.987                   : :Chapter 9
01:02:44.344                   : :Chapter 10
01:10:46.284                   : :Chapter 11
01:18:20.362                   : :Chapter 12
01:26:10.499                   : :Chapter 13
01:31:57.887                   : :Chapter 14
01:39:24.584                   : :Chapter 15
01:48:41.515                   : :Chapter 16