Zero 2018 x264 720p Esub BluRay Hindi Sadeemrdp GOPI SAHI

Zero (2018)

Not Rated | |Comedy, Drama, Romance |21 December 2018 (USA)

The story revolves around Bauua Singh (Shah Rukh Khan), a vertically challenged man, who is full of charm and wit, with a pinch of arrogance. Born to a wealthy family and raised in an environment of affluence, he is challenged to broaden his horizon and find purpose in life.

Director:

Aanand L. Rai
 
5.5/10
22,326

Directed byAanand L. Rai
Produced byAanand L. Rai
Gauri Khan
Written byHimanshu Sharma
Screenplay byHimanshu Sharma
StarringShah Rukh Khan
Anushka Sharma
Katrina Kaif
Music byAjay-Atul
Tanishk Bagchi
CinematographyManu Anand
Edited byHemal Kothar
Production
company
Distributed byVarious
Yash Raj Films[a]
Release date
  • 21 December 2018[3]
Running time
164 minutes[4]
CountryIndia
LanguageHindi
Budget₹200 crore[5]
Box officeest. ₹186 crores[6]



Format                         : Matroska
Format version                 : Version 4
File size                      : 1.13 GiB
Duration                       : 2 h 40 min
Overall bit rate               : 1 014 kb/s
Movie name                     : Zero 2018 GOPI SAHI

Video
ID                             : 1
Format                         : AVC
Format/Info                    : Advanced Video Codec
Format profile                 : [email protected]
Format settings                : CABAC / 5 Ref Frames
Format settings, CABAC         : Yes
Format settings, Reference fra : 5 frames
Codec ID                       : V_MPEG4/ISO/AVC
Duration                       : 2 h 40 min
Bit rate                       : 899 kb/s
Width                          : 1 280 pixels
Height                         : 570 pixels
Display aspect ratio           : 2.25:1
Frame rate mode                : Constant
Frame rate                     : 24.000 FPS
Color space                    : YUV
Chroma subsampling             : 4:2:0
Bit depth                      : 8 bits
Scan type                      : Progressive
Bits/(Pixel*Frame)             : 0.051
Stream size                    : 1.00 GiB (89%)
Title                          : GOPI SAHI
Writing library                : x264 core 157 r2935 545de2f

Audio
ID                             : 2
Format                         : AAC LC
Format/Info                    : Advanced Audio Codec Low Complexity
Codec ID                       : A_AAC-2
Duration                       : 2 h 40 min
Bit rate                       : 96.0 kb/s
Channel(s)                     : 2 channels
Channel layout                 : L R
Sampling rate                  : 48.0 kHz
Frame rate                     : 46.875 FPS (1024 SPF)
Compression mode               : Lossy
Delay relative to video        : -21 ms
Stream size                    : 109 MiB (9%)
Title                          : GOPI SAHI
Language                       : Hindi
Default                        : Yes
Forced                         : No

Text
ID                             : 3
Format                         : PGS
Muxing mode                    : zlib
Codec ID                       : S_HDMV/PGS
Codec ID/Info                  : Picture based subtitle format used on BDs/HD-DVDs
Duration                       : 2 h 36 min
Bit rate                       : 24.5 kb/s
Count of elements              : 3590
Stream size                    : 27.4 MiB (2%)
Title                          : GOPI SAHI
Language                       : English
Default                        : Yes
Forced                         : No

Menu
00:00:00.000                   : :A Short Introduction
00:04:11.833                   : :Bauaa Singh & Family
00:10:44.125                   : :Husn Parcham...
00:12:09.042                   : :A Blind Date
00:36:05.333                   : :Mere Naam Tu...
00:41:10.167                   : :Unconventional Romance
00:52:23.042                   : :Heer Badnaam...
00:58:49.875                   : :Bauaa Escapes His Marriage
01:12:45.292                   : :Issaqbaazi...
01:17:48.833                   : :Bauaa's Special Talent
01:38:10.000                   : :Argument At The Party
01:51:29.000                   : :Tanha Hua...
01:56:35.125                   : :Wedding Invitation
02:02:44.292                   : :Ann Bann...
02:07:06.875                   : :No More Escape
02:30:53.375                   : :End Credits














USAUPLOAD



Post a Comment

0 Comments