2 X2 - X-Men United 2003 x264 720p Esub BluRay Dual Audio English Hindi Sadeemrdp GOPI SAHI

X2: X-Men United (2003)

X2 (original title)

When anti-mutant Colonel William Stryker kidnaps Professor X and attacks his school, the X-Men must ally with their archenemy Magneto to stop him.

Director:

Bryan Singer

Writers:

Zak Penn (story), David Hayter (story) |4 more credits »

7.4/10
500,242

Directed byBryan Singer
Produced by
Screenplay by
Story by
Based on
Starring
Music byJohn Ottman
CinematographyNewton Thomas Sigel
Edited by
  • John Ottman
Production
companies
Distributed by20th Century Fox
Release date
  • April 24, 2003 (London, UK)
  • May 2, 2003 (United States)
Running time
133 minutes[1]
CountryUnited States
LanguageEnglish
Budget$110–125 million[2][3][4]
Box office$407.7 million[2]
Format                         : Matroska
Format version                 : Version 4
File size                      : 1.05 GiB
Duration                       : 2 h 13 min
Overall bit rate               : 1 119 kb/s
Movie name                     : 2 X2: X-Men United 2003 GOPI SAHI
Encoded date                   : UTC 2020-05-31 21:43:00
Writing application            : mkvmerge v46.0.0 ('No Deeper Escape') 32-bit
Writing library                : libebml v1.3.10 + libmatroska v1.5.2

Video
ID                             : 1
Format                         : AVC
Format/Info                    : Advanced Video Codec
Format profile                 : [email protected]
Format settings                : CABAC / 5 Ref Frames
Format settings, CABAC         : Yes
Format settings, Reference fra : 5 frames
Codec ID                       : V_MPEG4/ISO/AVC
Duration                       : 2 h 13 min
Bit rate                       : 899 kb/s
Width                          : 1 280 pixels
Height                         : 534 pixels
Display aspect ratio           : 2.40:1
Frame rate mode                : Constant
Frame rate                     : 23.976 (24000/1001) FPS
Color space                    : YUV
Chroma subsampling             : 4:2:0
Bit depth                      : 8 bits
Scan type                      : Progressive
Bits/(Pixel*Frame)             : 0.055
Stream size                    : 860 MiB (80%)
Title                          : GOPI SAHI
Writing library                : x264 core 157 r2935 545de2f

Audio #1
ID                             : 2
Format                         : AAC LC
Format/Info                    : Advanced Audio Codec Low Complexity
Codec ID                       : A_AAC-2
Duration                       : 2 h 13 min
Bit rate                       : 96.0 kb/s
Channel(s)                     : 2 channels
Channel layout                 : L R
Sampling rate                  : 48.0 kHz
Frame rate                     : 46.875 FPS (1024 SPF)
Compression mode               : Lossy
Delay relative to video        : -21 ms
Stream size                    : 92.3 MiB (9%)
Title                          : GOPI SAHI
Language                       : Hindi
Default                        : Yes
Forced                         : No

Audio #2
ID                             : 3
Format                         : AAC LC
Format/Info                    : Advanced Audio Codec Low Complexity
Codec ID                       : A_AAC-2
Duration                       : 2 h 13 min
Bit rate                       : 96.0 kb/s
Channel(s)                     : 2 channels
Channel layout                 : L R
Sampling rate                  : 48.0 kHz
Frame rate                     : 46.875 FPS (1024 SPF)
Compression mode               : Lossy
Delay relative to video        : -21 ms
Stream size                    : 92.2 MiB (9%)
Title                          : GOPI SAHI
Language                       : English
Default                        : No
Forced                         : No

Text #1
ID                             : 4
Format                         : PGS
Muxing mode                    : zlib
Codec ID                       : S_HDMV/PGS
Codec ID/Info                  : Picture based subtitle format used on BDs/HD-DVDs
Duration                       : 2 h 4 min
Bit rate                       : 19.8 kb/s
Count of elements              : 1802
Stream size                    : 17.6 MiB (2%)
Title                          : GOPI SAHI
Language                       : English
Default                        : Yes
Forced                         : Yes

Text #2
ID                             : 5
Format                         : PGS
Muxing mode                    : zlib
Codec ID                       : S_HDMV/PGS
Codec ID/Info                  : Picture based subtitle format used on BDs/HD-DVDs
Duration                       : 2 h 4 min
Bit rate                       : 44.3 kb/s
Count of elements              : 2578
Stream size                    : 39.4 MiB (4%)
Title                          : GOPI SAHI
Language                       : English
Default                        : No
Forced                         : No

Menu
00:00:00.000                   : :Main Titles
00:01:50.777                   : :Security Breach
00:05:22.113                   : :Alkali Lake
00:07:12.390                   : :The Field Trip
00:12:27.121                   : :Stryker's War
00:15:34.225                   : :Logan's Return
00:17:57.326                   : :One Final Talk
00:19:25.706                   : :The Mutant Connection
00:22:47.616                   : :Mutant Intruder
00:26:09.693                   : :Nightcrawler
00:29:15.963                   : :Sleepless
00:31:10.285                   : :Magneto's Visitor
00:33:41.686                   : :The War Has Begun
00:35:09.524                   : :The Invaders
00:39:50.179                   : :Out Of The Past
00:45:35.858                   : :Grace
00:47:18.336                   : :Stryker's Prisoner
00:50:24.104                   : :The Drake Home
00:53:17.986                   : :Too Much Iron
00:55:40.420                   : :This Mutant Problem
00:57:14.932                   : :Faith & Anger
00:59:21.808                   : :Dangerous Mutants
01:04:55.892                   : :Air Attack
01:09:23.701                   : :Stryker's Plan
01:14:48.734                   : :What Do You Want?
01:18:18.485                   : :The Mutant Inside
01:24:52.671                   : :Time To Find Our Friends
01:27:16.606                   : :Lover's Quarrel
01:30:32.385                   : :Point Of Origin
01:32:33.923                   : :Two Of A Kind
01:36:44.090                   : :Change Of Plans
01:41:16.195                   : :An Animal
01:43:31.163                   : :To Stop Cerebro
01:46:38.058                   : :The Big Chill
01:48:38.637                   : :Escape
01:53:41.940                   : :The Only Way
01:58:18.883                   : :The President's Opportunity
02:02:14.661                   : :Left Behind
02:04:38.554                   : :Evolution Leaps Forward
02:05:11.170                   : :End Titles















USAUPLOAD