6 X-Men The Wolverine 2013 Unleashed Extended x264 720p Esub BluRay Dual Audio English Hindi Sadeemrdp GOPI SAHI

The Wolverine (2013)

 
Wolverine comes to Japan to meet an old friend whose life he saved years ago, and gets embroiled in a conspiracy involving yakuza and mutants.

Director:

James Mangold

Writers:

Mark Bomback (screenplay), Scott Frank (screenplay)
6.7/10

Directed byJames Mangold
Produced by
Screenplay by
Based onWolverine
by Chris Claremont
Frank Miller
Starring
Music byMarco Beltrami
CinematographyRoss Emery
Edited byMichael McCusker
Production
companies
Distributed by20th Century Fox
Release date
  • July 26, 2013 (United States)
Running time
126 minutes[1]
Country
  • United States
  • United Kingdom[a]
Language
  • English
  • Japanese
Budget$100–132 million[7][8][9]
Box office$414.8 million[10]



Format                         : Matroska
Format version                 : Version 4
File size                      : 1.08 GiB
Duration                       : 2 h 18 min
Overall bit rate               : 1 121 kb/s
Movie name                     : The Wolverine 2013 Unleashed Extended GOPI SAHI
Encoded date                   : UTC 2020-06-01 13:14:09
Writing application            : mkvmerge v46.0.0 ('No Deeper Escape') 32-bit
Writing library                : libebml v1.3.10 + libmatroska v1.5.2

Video
ID                             : 1
Format                         : AVC
Format/Info                    : Advanced Video Codec
Format profile                 : [email protected]
Format settings                : CABAC / 5 Ref Frames
Format settings, CABAC         : Yes
Format settings, Reference fra : 5 frames
Codec ID                       : V_MPEG4/ISO/AVC
Duration                       : 2 h 18 min
Bit rate                       : 899 kb/s
Width                          : 1 280 pixels
Height                         : 532 pixels
Display aspect ratio           : 2.40:1
Frame rate mode                : Constant
Frame rate                     : 23.976 (24000/1001) FPS
Color space                    : YUV
Chroma subsampling             : 4:2:0
Bit depth                      : 8 bits
Scan type                      : Progressive
Bits/(Pixel*Frame)             : 0.055
Stream size                    : 887 MiB (80%)
Title                          : GOPI SAHI
Writing library                : x264 core 157 r2935 545de2f

Audio #1
ID                             : 2
Format                         : AAC LC
Format/Info                    : Advanced Audio Codec Low Complexity
Codec ID                       : A_AAC-2
Duration                       : 2 h 18 min
Bit rate                       : 96.0 kb/s
Channel(s)                     : 2 channels
Channel layout                 : L R
Sampling rate                  : 48.0 kHz
Frame rate                     : 46.875 FPS (1024 SPF)
Compression mode               : Lossy
Delay relative to video        : -21 ms
Stream size                    : 95.2 MiB (9%)
Title                          : GOPI SAHI
Language                       : Hindi
Default                        : Yes
Forced                         : No

Audio #2
ID                             : 3
Format                         : AAC LC
Format/Info                    : Advanced Audio Codec Low Complexity
Codec ID                       : A_AAC-2
Duration                       : 2 h 18 min
Bit rate                       : 96.0 kb/s
Channel(s)                     : 2 channels
Channel layout                 : L R
Sampling rate                  : 48.0 kHz
Frame rate                     : 46.875 FPS (1024 SPF)
Compression mode               : Lossy
Delay relative to video        : -21 ms
Stream size                    : 95.2 MiB (9%)
Title                          : GOPI SAHI
Language                       : English
Default                        : No
Forced                         : No

Text #1
ID                             : 4
Format                         : PGS
Muxing mode                    : zlib
Codec ID                       : S_HDMV/PGS
Codec ID/Info                  : Picture based subtitle format used on BDs/HD-DVDs
Duration                       : 2 h 16 min
Bit rate                       : 15.0 kb/s
Count of elements              : 2129
Stream size                    : 14.6 MiB (1%)
Title                          : GOPI SAHI
Language                       : Hindi
Default                        : Yes
Forced                         : Yes

Text #2
ID                             : 5
Format                         : PGS
Muxing mode                    : zlib
Codec ID                       : S_HDMV/PGS
Codec ID/Info                  : Picture based subtitle format used on BDs/HD-DVDs
Duration                       : 2 h 9 min
Bit rate                       : 18.2 kb/s
Count of elements              : 2113
Stream size                    : 16.8 MiB (2%)
Title                          : GOPI SAHI
Language                       : English
Default                        : No
Forced                         : No

Text #3
ID                             : 6
Format                         : PGS
Muxing mode                    : zlib
Codec ID                       : S_HDMV/PGS
Codec ID/Info                  : Picture based subtitle format used on BDs/HD-DVDs
Duration                       : 1 h 43 min
Bit rate                       : 1 335 b/s
Count of elements              : 232
Stream size                    : 1 009 KiB (0%)
Title                          : GOPI SAHI
Language                       : English
Default                        : No
Forced                         : No

Text #4
ID                             : 7
Format                         : PGS
Muxing mode                    : zlib
Codec ID                       : S_HDMV/PGS
Codec ID/Info                  : Picture based subtitle format used on BDs/HD-DVDs
Duration                       : 2 h 16 min
Bit rate                       : 22.3 kb/s
Count of elements              : 2128
Stream size                    : 21.7 MiB (2%)
Title                          : GOPI SAHI
Language                       : Tamil
Default                        : No
Forced                         : No

Text #5
ID                             : 8
Format                         : PGS
Muxing mode                    : zlib
Codec ID                       : S_HDMV/PGS
Codec ID/Info                  : Picture based subtitle format used on BDs/HD-DVDs
Duration                       : 2 h 16 min
Bit rate                       : 17.2 kb/s
Count of elements              : 2128
Stream size                    : 16.7 MiB (2%)
Title                          : GOPI SAHI
Language                       : Telugu
Default                        : No
Forced                         : No

Menu
00:00:00.000                   : :Chapter 1
00:05:03.887                   : :Chapter 2
00:07:39.793                   : :Chapter 3
00:08:40.562                   : :Chapter 4
00:10:24.374                   : :Chapter 5
00:13:55.668                   : :Chapter 6
00:16:48.174                   : :Chapter 7
00:20:32.648                   : :Chapter 8
00:23:37.207                   : :Chapter 9
00:29:13.585                   : :Chapter 10
00:33:42.771                   : :Chapter 11
00:35:14.779                   : :Chapter 12
00:38:36.523                   : :Chapter 13
00:43:04.957                   : :Chapter 14
00:47:55.081                   : :Chapter 15
00:49:31.886                   : :Chapter 16
00:52:23.182                   : :Chapter 17
00:59:32.319                   : :Chapter 18
01:01:31.354                   : :Chapter 19
01:07:00.683                   : :Chapter 20
01:13:10.261                   : :Chapter 21
01:18:52.228                   : :Chapter 22
01:23:40.474                   : :Chapter 23
01:26:47.160                   : :Chapter 24
01:29:51.094                   : :Chapter 25
01:35:19.380                   : :Chapter 26
01:38:28.194                   : :Chapter 27
01:41:43.639                   : :Chapter 28
01:48:33.007                   : :Chapter 29
01:52:05.969                   : :Chapter 30
01:54:56.264                   : :Chapter 31
01:58:03.535                   : :Chapter 32
02:03:02.000                   : :Chapter 33
02:04:57.532                   : :Chapter 34
02:07:46.909                   : :Chapter 35
02:09:17.375                   : :Chapter 36














USAUPLOAD