9 X-Men - Apocalypse 2016 x264 720p Esub BluRay Dual Audio English Hindi Sadeemrdp GOPI SAHI

X-Men: Apocalypse (2016)

In the 1980s the X-Men must defeat an ancient all-powerful mutant, En Sabah Nur, who intends to thrive through bringing destruction to the world.

Director:

Bryan Singer

Writers:

Simon Kinberg (screenplay by), Bryan Singer (story by) |3 more credits »
6.9/10


Directed byBryan Singer
Produced by
Screenplay bySimon Kinberg
Story by
Based on
Starring
Music byJohn Ottman
CinematographyNewton Thomas Sigel
Edited by
  • John Ottman
  • Michael Louis Hill
Production
companies
Distributed by20th Century Fox
Release date
  • May 9, 2016 (London)
  • May 27, 2016 (United States)
Running time
144 minutes[1]
CountryUnited States[2][3]
LanguageEnglish
Budget$178 million[4]
Box office$543.9 million[4]

Format                         : Matroska
Format version                 : Version 4
File size                      : 1.14 GiB
Duration                       : 2 h 23 min
Overall bit rate               : 1 130 kb/s
Movie name                     : X-Men: Apocalypse 2016 GOPI SAHI
Encoded date                   : UTC 2020-06-01 13:18:45
Writing application            : mkvmerge v46.0.0 ('No Deeper Escape') 32-bit
Writing library                : libebml v1.3.10 + libmatroska v1.5.2

Video
ID                             : 1
Format                         : AVC
Format/Info                    : Advanced Video Codec
Format profile                 : [email protected]
Format settings                : CABAC / 5 Ref Frames
Format settings, CABAC         : Yes
Format settings, Reference fra : 5 frames
Codec ID                       : V_MPEG4/ISO/AVC
Duration                       : 2 h 23 min
Bit rate                       : 899 kb/s
Width                          : 1 280 pixels
Height                         : 534 pixels
Display aspect ratio           : 2.40:1
Frame rate mode                : Constant
Frame rate                     : 23.976 (24000/1001) FPS
Color space                    : YUV
Chroma subsampling             : 4:2:0
Bit depth                      : 8 bits
Scan type                      : Progressive
Bits/(Pixel*Frame)             : 0.055
Stream size                    : 925 MiB (80%)
Title                          : GOPI SAHI
Writing library                : x264 core 157 r2935 545de2f
 
Audio #1ID                             : 2
Format                         : AAC LC
Format/Info                    : Advanced Audio Codec Low Complexity
Codec ID                       : A_AAC-2
Duration                       : 2 h 23 min
Bit rate                       : 96.0 kb/s
Channel(s)                     : 2 channels
Channel layout                 : L R
Sampling rate                  : 48.0 kHz
Frame rate                     : 46.875 FPS (1024 SPF)
Compression mode               : Lossy
Delay relative to video        : -21 ms
Stream size                    : 99.2 MiB (9%)
Title                          : GOPI SAHI
Language                       : Hindi
Default                        : Yes
Forced                         : No

Audio #2
ID                             : 3
Format                         : AAC LC
Format/Info                    : Advanced Audio Codec Low Complexity
Codec ID                       : A_AAC-2
Duration                       : 2 h 23 min
Bit rate                       : 96.0 kb/s
Channel(s)                     : 2 channels
Channel layout                 : L R
Sampling rate                  : 48.0 kHz
Frame rate                     : 46.875 FPS (1024 SPF)
Compression mode               : Lossy
Delay relative to video        : -21 ms
Stream size                    : 99.2 MiB (9%)
Title                          : GOPI SAHI
Language                       : English
Default                        : No
Forced                         : No

Text #1
ID                             : 4
Format                         : PGS
Muxing mode                    : zlib
Codec ID                       : S_HDMV/PGS
Codec ID/Info                  : Picture based subtitle format used on BDs/HD-DVDs
Duration                       : 2 h 22 min
Bit rate                       : 19.3 kb/s
Count of elements              : 2960
Stream size                    : 19.7 MiB (2%)
Title                          : GOPI SAHI
Language                       : Hindi
Default                        : Yes
Forced                         : Yes

Text #2
ID                             : 5
Format                         : PGS
Muxing mode                    : zlib
Codec ID                       : S_HDMV/PGS
Codec ID/Info                  : Picture based subtitle format used on BDs/HD-DVDs
Duration                       : 2 h 12 min
Bit rate                       : 25.1 kb/s
Count of elements              : 2916
Stream size                    : 23.7 MiB (2%)
Title                          : GOPI SAHI
Language                       : English
Default                        : No
Forced                         : No

Text #3
ID                             : 6
Format                         : PGS
Muxing mode                    : zlib
Codec ID                       : S_HDMV/PGS
Codec ID/Info                  : Picture based subtitle format used on BDs/HD-DVDs
Duration                       : 1 h 26 min
Bit rate                       : 2 051 b/s
Count of elements              : 186
Stream size                    : 1.27 MiB (0%)
Title                          : GOPI SAHI
Language                       : English
Default                        : No
Forced                         : No

Text #4
ID                             : 7
Format                         : PGS
Muxing mode                    : zlib
Codec ID                       : S_HDMV/PGS
Codec ID/Info                  : Picture based subtitle format used on BDs/HD-DVDs
Duration                       : 2 h 22 min
Bit rate                       : 29.9 kb/s
Count of elements              : 2962
Stream size                    : 30.6 MiB (3%)
Title                          : GOPI SAHI
Language                       : Tamil
Default                        : No
Forced                         : Yes

Text #5
ID                             : 8
Format                         : PGS
Muxing mode                    : zlib
Codec ID                       : S_HDMV/PGS
Codec ID/Info                  : Picture based subtitle format used on BDs/HD-DVDs
Duration                       : 2 h 22 min
Bit rate                       : 22.2 kb/s
Count of elements              : 2960
Stream size                    : 22.7 MiB (2%)
Title                          : GOPI SAHI
Language                       : Telugu
Default                        : No
Forced                         : No

Menu
00:00:00.000                   : :Chapter 1
00:08:18.790                   : :Chapter 2
00:14:13.186                   : :Chapter 3
00:18:07.086                   : :Chapter 4
00:24:55.494                   : :Chapter 5
00:30:45.344                   : :Chapter 6
00:36:35.235                   : :Chapter 7
00:41:00.083                   : :Chapter 8
00:45:56.504                   : :Chapter 9
00:49:24.295                   : :Chapter 10
00:55:22.694                   : :Chapter 11
00:59:36.823                   : :Chapter 12
01:04:43.671                   : :Chapter 13
01:12:35.852                   : :Chapter 14
01:17:32.898                   : :Chapter 15
01:22:18.517                   : :Chapter 16
01:27:45.594                   : :Chapter 17
01:34:05.807                   : :Chapter 18
01:36:46.634                   : :Chapter 19
01:39:50.902                   : :Chapter 20
01:43:34.375                   : :Chapter 21
01:49:57.382                   : :Chapter 22
01:55:08.360                   : :Chapter 23
01:57:21.660                   : :Chapter 24
02:03:50.632                   : :Chapter 25
02:07:56.711                   : :Chapter 26
02:10:59.101                   : :Chapter 27
02:12:54.091                   : :Chapter 28