Iron Man 2013 x264 720p Esub BluRay Dual Audio English Hindi GOPI SAHI

Iron Man 3 (2013)

Iron Man Three (original title)
PG-13 | | Action, Adventure, Sci-Fi | 3 May 2013 (USA) 
 
When Tony Stark's world is torn apart by a formidable terrorist called the Mandarin, he starts an odyssey of rebuilding and retribution.

Director:

Shane Black

Writers:

Drew Pearce (screenplay by), Shane Black (screenplay by) | 6 more credits »

7.2/10
733,353
Directed byShane Black
Produced byKevin Feige
Screenplay by
Based on
Starring
Music byBrian Tyler
CinematographyJohn Toll
Edited by
Production
company
Distributed byWalt Disney Studios
Motion Pictures
[N 1]
Release date
  • April 14, 2013 (Grand Rex)
  • May 3, 2013 (United States)
Running time
131 minutes[1]
CountryUnited States
LanguageEnglish
Budget$200 million[2]
Box office$1.215 billion[3]


Format                         : Matroska
Format version                 : Version 4 / Version 2
File size                      : 1.01 GiB
Duration                       : 2 h 10 min
Overall bit rate               : 1 107 kb/s
Movie name                     : 3 Iron Man 2013 GOPI SAHI

Video
ID                             : 1
Format                         : AVC
Format/Info                    : Advanced Video Codec
Format profile                 : [email protected]
Format settings, CABAC         : Yes
Format settings, RefFrames     : 5 frames
Codec ID                       : V_MPEG4/ISO/AVC
Duration                       : 2 h 10 min
Bit rate                       : 899 kb/s
Width                          : 1 280 pixels
Height                         : 534 pixels
Display aspect ratio           : 2.40:1
Frame rate mode                : Constant
Frame rate                     : 23.976 (24000/1001) FPS
Color space                    : YUV
Chroma subsampling             : 4:2:0
Bit depth                      : 8 bits
Scan type                      : Progressive
Bits/(Pixel*Frame)             : 0.055
Stream size                    : 839 MiB (81%)
Title                          : GOPI SAHI
Writing library                : x264 core 157 r2935 545de2f

Audio #1
ID                             : 2
Format                         : AAC
Format/Info                    : Advanced Audio Codec
Format profile                 : LC
Codec ID                       : A_AAC
Duration                       : 2 h 10 min
Bit rate                       : 96.0 kb/s
Channel(s)                     : 2 channels
Channel positions              : Front: L R
Sampling rate                  : 48.0 kHz
Frame rate                     : 46.875 FPS (1024 SPF)
Compression mode               : Lossy
Delay relative to video        : 2 s 979 ms
Stream size                    : 89.9 MiB (9%)
Title                          : GOPI SAHI
Language                       : Hindi
Default                        : Yes
Forced                         : No

Audio #2
ID                             : 3
Format                         : AAC
Format/Info                    : Advanced Audio Codec
Format profile                 : LC
Codec ID                       : A_AAC
Duration                       : 2 h 10 min
Bit rate                       : 96.0 kb/s
Channel(s)                     : 2 channels
Channel positions              : Front: L R
Sampling rate                  : 48.0 kHz
Frame rate                     : 46.875 FPS (1024 SPF)
Compression mode               : Lossy
Delay relative to video        : -21 ms
Stream size                    : 89.8 MiB (9%)
Title                          : GOPI SAHI
Language                       : English
Default                        : No
Forced                         : No

Text
ID                             : 4
Format                         : PGS
Muxing mode                    : zlib
Codec ID                       : S_HDMV/PGS
Codec ID/Info                  : Picture based subtitle format used on BDs/HD-DVDs
Duration                       : 2 h 10 min
Bit rate                       : 46.1 kb/s
Count of elements              : 4342
Stream size                    : 42.8 MiB (4%)
Title                          : GOPI SAHI
Language                       : English
Default                        : Yes
Forced                         : No