Kiss Of The Dragon 2001 Uncutx264 720p Esub BluRay Dual Audio English Hindi Sadeemrdp GOPI SAHI

Kiss of the Dragon (2001)

R | | Action, Crime, Drama | 6 July 2001 (USA)
A betrayed intelligence officer enlists the aid of a prostitute to prove his innocence from a deadly conspiracy while returning a favor to her.

Director:

Chris Nahon

Writers:

Jet Li (story), Luc Besson (screenplay) | 1 more credit »
6.6/10

Directed byChris Nahon
Produced byLuc Besson
Jet Li
Steve Chasman
Happy Walters
Screenplay byLuc Besson
Robert Mark Kamen
Story byJet Li
StarringJet Li
Bridget Fonda
Tchéky Karyo
Music byCraig Armstrong
Chino XL
CinematographyThierry Arbogast
Edited byMarco Cave
Production
company
Distributed by20th Century Fox
Release date
  • July 6, 2001 (United States)
  • August 1, 2001 (France)
Running time
98 minutes
CountryFrance
LanguageEnglish
French
Mandarin
Budget$25 million[1]
Box office$64.4 million[1]


Format                         : Matroska
Format version                 : Version 4
File size                      : 776 MiB
Duration                       : 1 h 38 min
Overall bit rate               : 1 104 kb/s
Movie name                     : Kiss of the Dragon 2001 Uncut GOPI SAHI
Encoded date                   : UTC 2020-06-03 18:47:41


Video
ID                             : 1
Format                         : AVC
Format/Info                    : Advanced Video Codec
Format profile                 : [email protected]
Format settings                : CABAC / 5 Ref Frames
Format settings, CABAC         : Yes
Format settings, Reference fra : 5 frames
Codec ID                       : V_MPEG4/ISO/AVC
Duration                       : 1 h 38 min
Bit rate                       : 899 kb/s
Width                          : 1 280 pixels
Height                         : 542 pixels
Display aspect ratio           : 2.35:1
Frame rate mode                : Constant
Frame rate                     : 23.976 (24000/1001) FPS
Color space                    : YUV
Chroma subsampling             : 4:2:0
Bit depth                      : 8 bits
Scan type                      : Progressive
Bits/(Pixel*Frame)             : 0.054
Stream size                    : 631 MiB (81%)
Title                          : GOPI SAHI
Writing library                : x264 core 157 r2935 545de2f

Audio #1
ID                             : 2
Format                         : AAC LC
Format/Info                    : Advanced Audio Codec Low Complexity
Codec ID                       : A_AAC-2
Duration                       : 1 h 38 min
Bit rate                       : 96.0 kb/s
Channel(s)                     : 2 channels
Channel layout                 : L R
Sampling rate                  : 48.0 kHz
Frame rate                     : 46.875 FPS (1024 SPF)
Compression mode               : Lossy
Delay relative to video        : 10 ms
Stream size                    : 67.8 MiB (9%)
Title                          : GOPI SAHI
Language                       : Hindi
Default                        : Yes
Forced                         : No

Audio #2
ID                             : 3
Format                         : AAC LC
Format/Info                    : Advanced Audio Codec Low Complexity
Codec ID                       : A_AAC-2
Duration                       : 1 h 38 min
Bit rate                       : 96.0 kb/s
Channel(s)                     : 2 channels
Channel layout                 : L R
Sampling rate                  : 48.0 kHz
Frame rate                     : 46.875 FPS (1024 SPF)
Compression mode               : Lossy
Delay relative to video        : -21 ms
Stream size                    : 67.7 MiB (9%)
Title                          : GOPI SAHI
Language                       : English
Default                        : No
Forced                         : No

Text
ID                             : 4
Format                         : PGS
Muxing mode                    : zlib
Codec ID                       : S_HDMV/PGS
Codec ID/Info                  : Picture based subtitle format used on BDs/HD-DVDs
Duration                       : 1 h 30 min
Bit rate                       : 23.1 kb/s
Count of elements              : 1153
Stream size                    : 15.0 MiB (2%)
Title                          : GOPI SAHI
Language                       : English
Default                        : No
Forced                         : No

Menu
00:00:00.000                   : :Main Titles
00:02:59.638                   : :Mr. Smith
00:07:31.910                   : :Welcome to Paris
00:10:41.891                   : :A Situation
00:16:31.073                   : :Double-Crossed
00:19:12.318                   : :Into the Fire
00:24:15.371                   : :Gare De L'est
00:27:13.966                   : :Our Best Man
00:32:17.894                   : :The Farmer's Daughter
00:36:28.436                   : :A Kind Person
00:43:15.468                   : :The Tour Boat Trip
00:48:04.465                   : :On the Run
00:50:44.124                   : :Help From Jessica
00:57:34.409                   : :A Tough Client
01:04:32.160                   : :The Witness
01:07:27.710                   : :Trust
01:11:29.243                   : :Jessica's Escape
01:14:21.165                   : :The Orphanage
01:19:57.710                   : :Liu Jian's Promise
01:21:54.743                   : :A Force of One
01:25:25.037                   : :Double Trouble
01:28:50.909                   : :The Kiss of the Dragon
01:31:52.882                   : :A Promise Kept
01:33:26.518                   : :End Titles