Like a Boss 2020 x264 720p Esub BluRay Dual Audio English Hindi Sadeemrdp GOPI SAHI

Like a Boss (2020)

 
Two friends with very different ideals start a beauty company together. One is more practical while the other wants to earn her fortune and live a lavish lifestyle.

Director:

Miguel Arteta

Writers:

Sam Pitman (screenplay by), Adam Cole-Kelly (screenplay by) | 3 more credits »
4.4/10 


Directed byMiguel Arteta
Produced by
  • Marc Evans
  • Peter Principato
  • Itay Reiss
  • Joel Zadak
Screenplay by
  • Sam Pitman
  • Adam Cole-Kelly
Story by
  • Sam Pitman
  • Adam Cole-Kelly
  • Danielle Sanchez-Witzel
Starring
Music by
CinematographyJas Shelton
Edited byJay Deuby
Production
company
Artists First
Distributed byParamount Pictures
Release date
  • January 10, 2020 (US)
Running time
83 minutes
CountryUnited States
LanguageEnglish
Budget$29 million[1]
Box office$29.8 million[1]


Format                         : Matroska
Format version                 : Version 4
File size                      : 653 MiB
Duration                       : 1 h 23 min
Overall bit rate               : 1 095 kb/s
Movie name                     : Like A Boss 2020 GOPI SAHI
Encoded date                   : UTC 2020-06-03 21:52:06

Video
ID                             : 1
Format                         : AVC
Format/Info                    : Advanced Video Codec
Format profile                 : [email protected]
Format settings                : CABAC / 5 Ref Frames
Format settings, CABAC         : Yes
Format settings, Reference fra : 5 frames
Codec ID                       : V_MPEG4/ISO/AVC
Duration                       : 1 h 23 min
Bit rate                       : 899 kb/s
Width                          : 1 280 pixels
Height                         : 534 pixels
Display aspect ratio           : 2.40:1
Frame rate mode                : Constant
Frame rate                     : 23.976 (24000/1001) FPS
Color space                    : YUV
Chroma subsampling             : 4:2:0
Bit depth                      : 8 bits
Scan type                      : Progressive
Bits/(Pixel*Frame)             : 0.055
Stream size                    : 536 MiB (82%)
Title                          : GOPI SAHI
Writing library                : x264 core 157 r2935 545de2f

Audio #1
ID                             : 2
Format                         : AAC LC
Format/Info                    : Advanced Audio Codec Low Complexity
Codec ID                       : A_AAC-2
Duration                       : 1 h 23 min
Bit rate                       : 96.0 kb/s
Channel(s)                     : 2 channels
Channel layout                 : L R
Sampling rate                  : 48.0 kHz
Frame rate                     : 46.875 FPS (1024 SPF)
Compression mode               : Lossy
Delay relative to video        : -21 ms
Stream size                    : 57.6 MiB (9%)
Title                          : GOPI SAHI
Language                       : Hindi
Default                        : No
Forced                         : No

Audio #2
ID                             : 3
Format                         : AAC LC
Format/Info                    : Advanced Audio Codec Low Complexity
Codec ID                       : A_AAC-2
Duration                       : 1 h 23 min
Bit rate                       : 96.0 kb/s
Channel(s)                     : 2 channels
Channel layout                 : L R
Sampling rate                  : 48.0 kHz
Frame rate                     : 46.875 FPS (1024 SPF)
Compression mode               : Lossy
Delay relative to video        : -21 ms
Stream size                    : 57.5 MiB (9%)
Title                          : GOPI SAHI
Language                       : English
Default                        : Yes
Forced                         : No

Text
ID                             : 4
Format                         : UTF-8
Codec ID                       : S_TEXT/UTF8
Codec ID/Info                  : UTF-8 Plain Text
Duration                       : 1 h 20 min
Bit rate                       : 102 b/s
Count of elements              : 1712
Stream size                    : 60.5 KiB (0%)
Title                          : GOPI SAHI
Language                       : English
Default                        : Yes
Forced                         : No

Menu
00:00:00.000                   : :Chapter 1
00:05:32.415                   : :Chapter 2
00:14:59.690                   : :Chapter 3
00:23:37.833                   : :Chapter 4
00:30:46.887                   : :Chapter 5
00:39:26.990                   : :Chapter 6
00:49:39.768                   : :Chapter 7
01:00:43.431                   : :Chapter 8
01:10:10.456                   : :Chapter 9
01:19:22.049                   : :Chapter 10