Pati Patni Aur Woh 2020 x264 MXP Hindi ( S01 Com E01 - 10 ) GOPI SAHI

Pati Patni Aur Woh (2019)

Not Rated | | Comedy, Romance | 6 December 2019 (USA) 

Chintu Tyagi is an ordinary, middle class man who finds himself torn between his wife and another woman.

Director:

Mudassar Aziz

Writers:

Mudassar Aziz (Screenplay), Mudassar Aziz (dialogue) | 4 more credits »
5.8/10
4,808

Format                         : Matroska
Format version                 : Version 4 / Version 2
File size                      : 218 MiB
Duration                       : 33 min 56 s
Overall bit rate               : 898 kb/s
Encoded date                   : UTC 2020-06-11 03:54:51

Video
ID                             : 1
Format                         : AVC
Format/Info                    : Advanced Video Codec
Format profile                 : [email protected]
Format settings, CABAC         : Yes
Format settings, RefFrames     : 4 frames
Codec ID                       : V_MPEG4/ISO/AVC
Duration                       : 33 min 56 s
Bit rate                       : 820 kb/s
Width                          : 1 280 pixels
Height                         : 544 pixels
Display aspect ratio           : 2.35:1
Frame rate mode                : Constant
Frame rate                     : 25.000 FPS
Color space                    : YUV
Chroma subsampling             : 4:2:0
Bit depth                      : 8 bits
Scan type                      : Progressive
Bits/(Pixel*Frame)             : 0.047
Stream size                    : 195 MiB (89%)
Writing library                : x264 core 155 r2901 7d0ff22

Audio
ID                             : 2
Format                         : AAC
Format/Info                    : Advanced Audio Codec
Format profile                 : LC
Codec ID                       : A_AAC
Duration                       : 33 min 55 s
Bit rate                       : 93.5 kb/s
Channel(s)                     : 2 channels
Channel positions              : Front: L R
Sampling rate                  : 44.1 kHz
Frame rate                     : 43.066 FPS (1024 SPF)
Compression mode               : Lossy
Stream size                    : 22.7 MiB (10%)
Language                       : Hindi
Default                        : Yes
Forced                         : No

Text
ID                             : 3
Format                         : UTF-8
Codec ID                       : S_TEXT/UTF8
Codec ID/Info                  : UTF-8 Plain Text
Duration                       : 33 min 4 s
Bit rate                       : 59 b/s
Count of elements              : 418
Stream size                    : 14.3 KiB (0%)
Language                       : English
Default                        : Yes
Forced                         : No