Salaam Namaste 2005 x264 720p Esub BluRay Hindi Sadeemrdp GOPI SAHI


Hello Greetings (2005)

Salaam Namaste (original title)
 
A quirky take on life and relationships as it looks at a fairy tale with a bit of a squint and an endearing look at what being in love really means.

Director:

Siddharth Anand

Writers:

Siddharth Anand (screenplay), Siddharth Anand (story) |1 more credit »

Stars:

Saif Ali Khan, Preity Zinta, Arshad Warsi |See full cast & crew »


6.2/10
6,559
Directed bySiddharth Anand
Produced byAditya Chopra
Written byAbbas Tyrewala
Siddharth Anand
Starring
Narrated byAbhishek Bachchan
Music by
CinematographySunil Patel
Edited byRitesh Soni
Distributed byYash Raj Films
Release date
  • 9 September 2005
Running time
159 min.
CountryIndia
LanguageHindi
Budget110 million (US$1.5 million)[1]
Box office572 million (US$8.0 million)[2]

Format                         : Matroska
Format version                 : Version 4
File size                      : 1.10 GiB
Duration                       : 2 h 38 min
Overall bit rate               : 997 kb/s
Movie name                     : Salaam Namaste 2005 GOPI SAHI
Encoded date                   : UTC 2020-06-01 22:08:45
Writing application            : mkvmerge v46.0.0 ('No Deeper Escape') 32-bit
Writing library                : libebml v1.3.10 + libmatroska v1.5.2

Video
ID                             : 1
Format                         : AVC
Format/Info                    : Advanced Video Codec
Format profile                 : [email protected]
Format settings                : CABAC / 5 Ref Frames
Format settings, CABAC         : Yes
Format settings, Reference fra : 5 frames
Codec ID                       : V_MPEG4/ISO/AVC
Duration                       : 2 h 38 min
Bit rate                       : 899 kb/s
Width                          : 1 280 pixels
Height                         : 544 pixels
Display aspect ratio           : 2.35:1
Frame rate mode                : Constant
Frame rate                     : 24.000 FPS
Color space                    : YUV
Chroma subsampling             : 4:2:0
Bit depth                      : 8 bits
Scan type                      : Progressive
Bits/(Pixel*Frame)             : 0.054
Stream size                    : 1 018 MiB (90%)
Title                          : GOPI SAHI
Writing library                : x264 core 157 r2935 545de2f

Audio
ID                             : 2
Format                         : AAC LC
Format/Info                    : Advanced Audio Codec Low Complexity
Codec ID                       : A_AAC-2
Duration                       : 2 h 38 min
Bit rate                       : 96.0 kb/s
Channel(s)                     : 2 channels
Channel layout                 : L R
Sampling rate                  : 48.0 kHz
Frame rate                     : 46.875 FPS (1024 SPF)
Compression mode               : Lossy
Delay relative to video        : -21 ms
Stream size                    : 109 MiB (10%)
Title                          : GOPI SAHI
Language                       : Hindi
Default                        : Yes
Forced                         : No

Text
ID                             : 3
Format                         : UTF-8
Codec ID                       : S_TEXT/UTF8
Codec ID/Info                  : UTF-8 Plain Text
Duration                       : 2 h 31 min
Bit rate                       : 71 b/s
Count of elements              : 2238
Stream size                    : 78.7 KiB (0%)
Title                          : GOPI SAHI
Language                       : English
Default                        : Yes
Forced                         : No













USAUPLOAD


Post a Comment

0 Comments