Se7en 1995 Remastered Edition x264 720p Esub BluRay Dual Audio English Hindi GOPI SAHI

Se7en (1995)



Two detectives, a rookie and a veteran, hunt a serial killer who uses the seven deadly sins as his motives.

Director:

David Fincher

8.6/10
1,384,224

Directed byDavid Fincher
Produced by
Written byAndrew Kevin Walker
Starring
Music byHoward Shore
CinematographyDarius Khondji
Edited byRichard Francis-Bruce
Production
company
  • Cecchi Gori Pictures
  • Juno Pix
Distributed byNew Line Cinema
Release date
Running time
127 minutes[1]
CountryUnited States
LanguageEnglish
Budget$33 million[2]
Box office$327.3 million[2]





Format                         : Matroska
Format version                 : Version 4 / Version 2
File size                      : 1 007 MiB
Duration                       : 2 h 6 min
Overall bit rate               : 1 109 kb/s
Movie name                     : Se7en 1995 Remastered Edition GOPI SAHI
Encoded date                   : UTC 2020-06-09 11:04:48

Video
ID                             : 1
Format                         : AVC
Format/Info                    : Advanced Video Codec
Format profile                 : [email protected]
Format settings, CABAC         : Yes
Format settings, RefFrames     : 5 frames
Codec ID                       : V_MPEG4/ISO/AVC
Duration                       : 2 h 6 min
Bit rate                       : 899 kb/s
Width                          : 1 280 pixels
Height                         : 534 pixels
Display aspect ratio           : 2.40:1
Frame rate mode                : Constant
Frame rate                     : 23.976 (24000/1001) FPS
Color space                    : YUV
Chroma subsampling             : 4:2:0
Bit depth                      : 8 bits
Scan type                      : Progressive
Bits/(Pixel*Frame)             : 0.055
Stream size                    : 815 MiB (81%)
Title                          : GOPI SAHI
Writing library                : x264 core 157 r2935 545de2f

Audio #1
ID                             : 2
Format                         : AAC
Format/Info                    : Advanced Audio Codec
Format profile                 : LC
Codec ID                       : A_AAC
Duration                       : 2 h 6 min
Bit rate                       : 96.0 kb/s
Channel(s)                     : 2 channels
Channel positions              : Front: L R
Sampling rate                  : 48.0 kHz
Frame rate                     : 46.875 FPS (1024 SPF)
Compression mode               : Lossy
Delay relative to video        : -21 ms
Stream size                    : 87.4 MiB (9%)
Title                          : GOPI SAHI
Language                       : Hindi
Default                        : Yes
Forced                         : No

Audio #2
ID                             : 3
Format                         : AAC
Format/Info                    : Advanced Audio Codec
Format profile                 : LC
Codec ID                       : A_AAC
Duration                       : 2 h 6 min
Bit rate                       : 96.0 kb/s
Channel(s)                     : 2 channels
Channel positions              : Front: L R
Sampling rate                  : 48.0 kHz
Frame rate                     : 46.875 FPS (1024 SPF)
Compression mode               : Lossy
Delay relative to video        : -21 ms
Stream size                    : 87.4 MiB (9%)
Title                          : GOPI SAHI
Language                       : English
Default                        : No
Forced                         : No

Text
ID                             : 4
Format                         : PGS
Muxing mode                    : zlib
Codec ID                       : S_HDMV/PGS
Codec ID/Info                  : Picture based subtitle format used on BDs/HD-DVDs
Duration                       : 2 h 6 min
Bit rate                       : 35.7 kb/s
Count of elements              : 3324
Stream size                    : 32.2 MiB (3%)
Title                          : GOPI SAHI
Language                       : English
Default                        : Yes
Forced                         : Yes

Menu #1
00:00:00.000                   : :Opening Logo
00:04:11.334                   : :The Last Seven Days
00:06:19.379                   : :Main Title
00:07:33.995                   : :Monday
00:14:47.678                   : :Gluttony
00:17:07.693                   : :Somerset Wants Out
00:18:11.632                   : :Tuesday
00:21:42.343                   : :Greed
00:24:27.007                   : :Seven Deadly Sins
00:29:28.684                   : :Hitting the Books
00:30:27.200                   : :Wednesday
00:33:13.408                   : :Close Quarters
00:37:28.621                   : :A Late Supper
00:42:23.708                   : :Forced Attrition
00:43:33.027                   : :Mrs. Gould
00:47:43.486                   : :Help Me
00:50:18.557                   : :Thursday
00:54:24.970                   : :Sloth
00:57:28.362                   : :Feeding Off His Emotions
01:01:45.493                   : :Friday
01:04:19.689                   : :Methodical, Exacting and Patient
01:07:26.709                   : :Who's Reading What
01:14:45.189                   : :John Doe
01:20:34.204                   : :A Reason to Knock
01:24:07.501                   : :"I Admire You"
01:25:04.349                   : :Saturday
01:28:15.749                   : :Lust
01:33:05.246                   : :Apathy Is Easy
01:33:58.800                   : :Sunday; Pride
01:36:47.051                   : :Surrender
01:39:04.647                   : :The Deal
01:40:53.923                   : :Ready to Move
01:44:05.114                   : :"You Won't Miss a Thing"
01:50:54.106                   : :The Chosen One
01:53:06.280                   : :"It's Close"
01:56:56.676                   : :The Package
02:02:00.313                   : :Envy and Wrath

Menu #2
00:00:00.000                   : en:Opening Logo
00:04:11.251                   : en:The Last Seven Days
00:06:19.253                   : en:Main Title
00:07:33.744                   : en:Monday
00:14:47.511                   : en:Gluttony
00:17:07.443                   : en:Somerset Wants Out
00:18:11.465                   : en:Tuesday
00:21:42.175                   : en:Greed
00:24:26.756                   : en:Seven Deadly Sins
00:29:28.516                   : en:Hitting the Books
00:30:27.033                   : en:Wednesday
00:33:13.157                   : en:Close Quarters
00:37:28.454                   : en:A Late Supper
00:42:23.541                   : en:Forced Attrition
00:43:32.860                   : en:Mrs. Gould
00:47:43.235                   : en:Help Me
00:50:18.390                   : en:Thursday
00:54:24.803                   : en:Sloth
00:57:28.194                   : en:Feeding Off His Emotions
01:01:45.159                   : en:Friday
01:04:19.605                   : en:Methodical, Exacting and Patient
01:07:26.584                   : en:Who's Reading What
01:14:45.022                   : en:John Doe
01:20:34.037                   : en:A Reason to Knock
01:24:07.250                   : en:"I Admire You"
01:25:04.140                   : en:Saturday
01:28:15.498                   : en:Lust
01:33:05.162                   : en:Apathy Is Easy
01:33:58.799                   : en:Sunday; Pride
01:36:46.967                   : en:Surrender
01:39:04.480                   : en:The Deal
01:40:53.797                   : en:Ready to Move
01:44:05.030                   : en:"You Won't Miss a Thing"
01:50:53.855                   : en:The Chosen One
01:53:06.196                   : en:"It's Close"
01:56:56.634                   : en:The Package
02:02:00.313                   : en:Envy and Wrath
02:06:49.393                   : en:End Credits