The Avengers 2012 720p x264 Esub BluRay Dual Audio English Hindi GOPISAHI

The Avengers (2012)

 
Earth's mightiest heroes must come together and learn to fight as a team if they are going to stop the mischievous Loki and his alien army from enslaving humanity.

Director:

Joss Whedon

Writers:

Joss Whedon (screenplay), Zak Penn (story) |1 more credit »

8.0/10
1,232,645

Directed byJoss Whedon
Produced byKevin Feige
Screenplay byJoss Whedon
Story by
Based on
Starring
Music byAlan Silvestri
CinematographySeamus McGarvey
Edited by
Production
company
Distributed byWalt Disney Studios
Motion Pictures
[N 1]
Release date
Running time
143 minutes[3]
CountryUnited States
LanguageEnglish
Budget$220 million[4]
Box office$1.519 billion[5]


Format                         : Matroska
Format version                 : Version 4 / Version 2
File size                      : 1.10 GiB
Duration                       : 2 h 22 min
Overall bit rate               : 1 106 kb/s
Movie name                     : 1 The Avengers 2012 GOPI SAHI
Encoded date                   : UTC 2020-06-09 21:00:19

Video
ID                             : 1
Format                         : AVC
Format/Info                    : Advanced Video Codec
Format profile                 : [email protected]
Format settings, CABAC         : Yes
Format settings, RefFrames     : 5 frames
Codec ID                       : V_MPEG4/ISO/AVC
Duration                       : 2 h 22 min
Bit rate                       : 899 kb/s
Width                          : 1 280 pixels
Height                         : 720 pixels
Display aspect ratio           : 16:9
Frame rate mode                : Constant
Frame rate                     : 23.976 (24000/1001) FPS
Color space                    : YUV
Chroma subsampling             : 4:2:0
Bit depth                      : 8 bits
Scan type                      : Progressive
Bits/(Pixel*Frame)             : 0.041
Stream size                    : 918 MiB (81%)
Title                          : GOPI SAHI
Writing library                : x264 core 157 r2935 545de2f

Audio #1
ID                             : 2
Format                         : AAC
Format/Info                    : Advanced Audio Codec
Format profile                 : LC
Codec ID                       : A_AAC
Duration                       : 2 h 22 min
Bit rate                       : 96.0 kb/s
Channel(s)                     : 2 channels
Channel positions              : Front: L R
Sampling rate                  : 48.0 kHz
Frame rate                     : 46.875 FPS (1024 SPF)
Compression mode               : Lossy
Delay relative to video        : -21 ms
Stream size                    : 98.5 MiB (9%)
Title                          : GOPI SAHI
Language                       : Hindi
Default                        : Yes
Forced                         : No

Audio #2
ID                             : 3
Format                         : AAC
Format/Info                    : Advanced Audio Codec
Format profile                 : LC
Codec ID                       : A_AAC
Duration                       : 2 h 22 min
Bit rate                       : 96.0 kb/s
Channel(s)                     : 2 channels
Channel positions              : Front: L R
Sampling rate                  : 48.0 kHz
Frame rate                     : 46.875 FPS (1024 SPF)
Compression mode               : Lossy
Delay relative to video        : -21 ms
Stream size                    : 98.5 MiB (9%)
Title                          : GOPI SAHI
Language                       : English
Default                        : No
Forced                         : No

Text
ID                             : 4
Format                         : PGS
Muxing mode                    : zlib
Codec ID                       : S_HDMV/PGS
Codec ID/Info                  : Picture based subtitle format used on BDs/HD-DVDs
Duration                       : 2 h 15 min
Bit rate                       : 38.6 kb/s
Count of elements              : 4086
Stream size                    : 37.4 MiB (3%)
Title                          : GOPI SAHI
Language                       : English
Default                        : Yes
Forced                         : No