Thor Ragnarok 2017 x264 720p Esub BluRay Dual Audio English Hindi GOPI SAHI


Thor: Ragnarok (2017)


Imprisoned on the planet Sakaar, Thor must race against time to return to Asgard and stop Ragnarök, the destruction of his world, at the hands of the powerful and ruthless villain Hela.

Director:

Taika Waititi
 
7.9/10
554,188
 


Directed byTaika Waititi
Produced byKevin Feige
Written by
Based on
Starring
Music byMark Mothersbaugh
CinematographyJavier Aguirresarobe
Edited by
Production
company
Distributed byWalt Disney Studios
Motion Pictures
Release date
Running time
130 minutes[1]
CountryUnited States
LanguageEnglish
Budget$180 million[2]
Box office$854 million[2]

 


Format                         : Matroska
Format version                 : Version 4 / Version 2
File size                      : 1.02 GiB
Duration                       : 2 h 10 min
Overall bit rate               : 1 115 kb/s
Movie name                     : 3 Thor Ragnarok 2017  IMAX Edition GOPI SAHI
Encoded date                   : UTC 2020-06-11 10:52:10

Video
ID                             : 1
Format                         : AVC
Format/Info                    : Advanced Video Codec
Format profile                 : [email protected]
Format settings, CABAC         : Yes
Format settings, RefFrames     : 5 frames
Codec ID                       : V_MPEG4/ISO/AVC
Duration                       : 2 h 10 min
Bit rate                       : 899 kb/s
Width                          : 1 280 pixels
Height                         : 676 pixels
Display aspect ratio           : 1.893
Frame rate mode                : Constant
Frame rate                     : 23.976 (24000/1001) FPS
Color space                    : YUV
Chroma subsampling             : 4:2:0
Bit depth                      : 8 bits
Scan type                      : Progressive
Bits/(Pixel*Frame)             : 0.043
Stream size                    : 839 MiB (81%)
Title                          : GOPI SAHI
Writing library                : x264 core 157 r2935 545de2f

Audio #1
ID                             : 2
Format                         : AAC
Format/Info                    : Advanced Audio Codec
Format profile                 : LC
Codec ID                       : A_AAC
Duration                       : 2 h 10 min
Bit rate                       : 96.0 kb/s
Channel(s)                     : 2 channels
Channel positions              : Front: L R
Sampling rate                  : 48.0 kHz
Frame rate                     : 46.875 FPS (1024 SPF)
Compression mode               : Lossy
Delay relative to video        : -21 ms
Stream size                    : 89.9 MiB (9%)
Title                          : GOPI SAHI
Language                       : Hindi
Default                        : Yes
Forced                         : No

Audio #2
ID                             : 3
Format                         : AAC
Format/Info                    : Advanced Audio Codec
Format profile                 : LC
Codec ID                       : A_AAC
Duration                       : 2 h 10 min
Bit rate                       : 96.0 kb/s
Channel(s)                     : 2 channels
Channel positions              : Front: L R
Sampling rate                  : 48.0 kHz
Frame rate                     : 46.875 FPS (1024 SPF)
Compression mode               : Lossy
Delay relative to video        : -21 ms
Stream size                    : 89.9 MiB (9%)
Title                          : GOPI SAHI
Language                       : English
Default                        : No
Forced                         : No

Text
ID                             : 4
Format                         : PGS
Muxing mode                    : zlib
Codec ID                       : S_HDMV/PGS
Codec ID/Info                  : Picture based subtitle format used on BDs/HD-DVDs
Duration                       : 2 h 9 min
Bit rate                       : 47.5 kb/s
Count of elements              : 3136
Stream size                    : 43.9 MiB (4%)
Title                          : GOPI SAHI
Language                       : English
Default                        : Yes
Forced                         : No












USAUPLOAD