Upgrade 2018 x264 720p Esub BluRay Dual Audio English Hindi GOPI SAHI

Upgrade (2018)


R ||Action, Horror, Sci-Fi|1 June 2018 (USA) 
 

Set in the near-future, technology controls nearly all aspects of life. But when the world of Grey, a self-labeled technophobe, is turned upside down, his only hope for revenge is an experimental computer chip implant.

Director:

Writer:

Stars:

Directed byLeigh Whannell
Produced by
  • Jason Blum
  • Kylie Du Fresne
  • Brian Kavanaugh-Jones
Written byLeigh Whannell
Starring
Music byJed Palmer
CinematographyStefan Duscio
Edited byAndy Canny
Production
company
Distributed by
  • OTL Releasing
  • BH Tilt
Release date
  • 10 March 2018 (SXSW)
  • 1 June 2018 (United States)
  • 14 June 2018 (Australia)
Running time
100 minutes
Country
  • Australia
  • United States
LanguageEnglish
Budget$3 million[2]
Box office$17 million[2]



Format                         : Matroska
Format version                 : Version 4
File size                      : 791 MiB
Duration                       : 1 h 39 min
Overall bit rate               : 1 106 kb/s
Movie name                     : Upgrade 2018 GOPI SAHI

Video
ID                             : 1
Format                         : AVC
Format/Info                    : Advanced Video Codec
Format profile                 : [email protected]
Format settings                : CABAC / 5 Ref Frames
Format settings, CABAC         : Yes
Format settings, Reference fra : 5 frames
Codec ID                       : V_MPEG4/ISO/AVC
Duration                       : 1 h 39 min
Bit rate                       : 899 kb/s
Width                          : 1 280 pixels
Height                         : 536 pixels
Display aspect ratio           : 2.40:1
Frame rate mode                : Constant
Frame rate                     : 23.976 (24000/1001) FPS
Color space                    : YUV
Chroma subsampling             : 4:2:0
Bit depth                      : 8 bits
Scan type                      : Progressive
Bits/(Pixel*Frame)             : 0.055
Stream size                    : 642 MiB (81%)
Title                          : GOPI SAHI
Writing library                : x264 core 157 r2935 545de2f

Audio #1
ID                             : 2
Format                         : AAC LC
Format/Info                    : Advanced Audio Codec Low Complexity
Codec ID                       : A_AAC-2
Duration                       : 1 h 39 min
Bit rate                       : 96.0 kb/s
Channel(s)                     : 2 channels
Channel layout                 : L R
Sampling rate                  : 48.0 kHz
Frame rate                     : 46.875 FPS (1024 SPF)
Compression mode               : Lossy
Delay relative to video        : -21 ms
Stream size                    : 68.9 MiB (9%)
Title                          : GOPI SAHI
Language                       : Hindi
Default                        : Yes
Forced                         : No

Audio #2
ID                             : 3
Format                         : AAC LC
Format/Info                    : Advanced Audio Codec Low Complexity
Codec ID                       : A_AAC-2
Duration                       : 1 h 39 min
Bit rate                       : 96.0 kb/s
Channel(s)                     : 2 channels
Channel layout                 : L R
Sampling rate                  : 48.0 kHz
Frame rate                     : 46.875 FPS (1024 SPF)
Compression mode               : Lossy
Delay relative to video        : -21 ms
Stream size                    : 68.9 MiB (9%)
Title                          : GOPI SAHI
Language                       : English
Default                        : No
Forced                         : No

Text
ID                             : 4
Format                         : PGS
Muxing mode                    : zlib
Codec ID                       : S_HDMV/PGS
Codec ID/Info                  : Picture based subtitle format used on BDs/HD-DVDs
Duration                       : 1 h 33 min
Bit rate                       : 39.7 kb/s
Count of elements              : 2648
Stream size                    : 26.5 MiB (3%)
Title                          : GOPI SAHI
Language                       : English
Default                        : Yes
Forced                         : No






MAGNET

TORRENT

MULTIUP

ANONFILES

BAYFILES

RECATY

GDRIVE

UPLOADFILES

MEDIAFIRE

USAUPLOAD

ONLINE 720P