Villmark Asylum 2015 x264 720p Esub BluRay Dual Audio Norwegian Hindi Sadeemrdp GOPI SAHI

Villmark 2 (2015)

Not Rated | | Horror | 9 October 2015 (Norway)

Five contract workers have taken on the task of tracking a huge old sanatorium for hazardous waste before demolishing. They realize that the job is more than a search for asbestos and mercury. The enormous building has much darker secrets.

Director:

Pål Øie

Writers:

Kjersti Helen Rasmussen (as Kjersti Rasmussen), Pål Øie (created by) | 1 more credit »
5.2/10
2,303

Directed byPål Øie
Produced byJan Aksel Angeltvedt
Written byChristopher Grøndahl
StarringKristoffer Joner
Bjørn Floberg
Marko Iversen Kanic
Eva Röse
Sampda Sharma
Music byTrond Bjerknes
Distributed byORO Film AS
Release date
  • 2003
Running time
85 minutes
CountryNorway
LanguageNorwegian


Format                         : Matroska
Format version                 : Version 4
File size                      : 773 MiB
Duration                       : 1 h 33 min
Overall bit rate               : 1 153 kb/s
Movie name                     : Villmark Asylum 2015 UNRATED GOPI SAHI
Encoded date                   : UTC 2020-06-05 22:16:12

Video
ID                             : 1
Format                         : AVC
Format/Info                    : Advanced Video Codec
Format profile                 : [email protected]
Format settings                : CABAC / 5 Ref Frames
Format settings, CABAC         : Yes
Format settings, Reference fra : 5 frames
Codec ID                       : V_MPEG4/ISO/AVC
Duration                       : 1 h 33 min
Bit rate                       : 899 kb/s
Width                          : 1 280 pixels
Height                         : 534 pixels
Display aspect ratio           : 2.40:1
Frame rate mode                : Constant
Frame rate                     : 24.000 FPS
Color space                    : YUV
Chroma subsampling             : 4:2:0
Bit depth                      : 8 bits
Scan type                      : Progressive
Bits/(Pixel*Frame)             : 0.055
Stream size                    : 602 MiB (78%)
Title                          : GOPI SAHI
Writing library                : x264 core 157 r2935 545de2f

Audio #1
ID                             : 2
Format                         : AAC LC
Format/Info                    : Advanced Audio Codec Low Complexity
Codec ID                       : A_AAC-2
Duration                       : 1 h 33 min
Bit rate                       : 96.0 kb/s
Channel(s)                     : 2 channels
Channel layout                 : L R
Sampling rate                  : 44.1 kHz
Frame rate                     : 43.066 FPS (1024 SPF)
Compression mode               : Lossy
Delay relative to video        : -66 ms
Stream size                    : 64.6 MiB (8%)
Title                          : GOPI SAHI
Language                       : Hindi
Default                        : Yes
Forced                         : No

Audio #2
ID                             : 4
Format                         : AAC LC
Format/Info                    : Advanced Audio Codec Low Complexity
Codec ID                       : A_AAC-2
Duration                       : 1 h 33 min
Bit rate                       : 155 kb/s
Channel(s)                     : 2 channels
Channel layout                 : L R
Sampling rate                  : 48.0 kHz
Frame rate                     : 46.875 FPS (1024 SPF)
Compression mode               : Lossy
Delay relative to video        : -66 ms
Stream size                    : 104 MiB (13%)
Title                          : GOPI SAHI
Language                       : Norwegian
Default                        : No
Forced                         : No

Text
ID                             : 3
Format                         : UTF-8
Codec ID                       : S_TEXT/UTF8
Codec ID/Info                  : UTF-8 Plain Text
Duration                       : 1 h 25 min
Bit rate                       : 20 b/s
Count of elements              : 484
Stream size                    : 12.6 KiB (0%)
Title                          : GOPI SAHI
Language                       : English
Default                        : Yes
Forced                         : No