47 Meters Down-Uncaged 2019 x264 720p Esub BluRay Dual Audio English Hindi GOPI SAHI

47 Meters Down: Uncaged (2019)


Four teen girls diving in a ruined underwater city quickly learn they've entered the territory of the deadliest shark species in the claustrophobic labyrinth of submerged caves.
EN

Director:

Johannes Roberts
5.0/10

Directed byJohannes Roberts
Produced by
  • James Harris
  • Mark Lane
  • Robert Jones
Screenplay by
  • Johannes Roberts
  • Ernest Riera
Starring
Music byTomandandy
CinematographyMark Silk
Edited byMartin Brinkler
Production
companies
  • The Fyzz Facility
Distributed byEntertainment Studios Motion Pictures
Release date
  • August 16, 2019
Running time
89 minutes[1]
Country
  • United States
  • United Kingdom
LanguageEnglish
Budget$12 million[1]
Box office$46.7 million[1]



Format                         : Matroska
Format version                 : Version 4
File size                      : 705 MiB
Duration                       : 1 h 30 min
Overall bit rate               : 1 094 kb/s
Movie name                     : 47 Meters Down-Uncaged 2019 GOPI SAHI
Encoded date                   : UTC 2020-08-10 10:37:20

Video
Format                         : AVC
Format/Info                    : Advanced Video Codec
Format profile                 : [email protected]
Format settings                : CABAC / 5 Ref Frames
Format settings, CABAC         : Yes
Format settings, Reference fra : 5 frames
Codec ID                       : V_MPEG4/ISO/AVC
Duration                       : 1 h 30 min
Bit rate                       : 899 kb/s
Width                          : 1 202 pixels
Height                         : 544 pixels
Display aspect ratio           : 2.2:1
Frame rate mode                : Constant
Frame rate                     : 23.976 (24000/1001) FPS
Color space                    : YUV
Chroma subsampling             : 4:2:0
Bit depth                      : 8 bits
Scan type                      : Progressive
Bits/(Pixel*Frame)             : 0.057
Stream size                    : 579 MiB (82%)
Title                          : GOPI SAHI
Writing library                : x264 core 157 r2935 545de2f

Audio #1
ID                             : 2
Format                         : AAC LC
Format/Info                    : Advanced Audio Codec Low Complexity
Codec ID                       : A_AAC-2
Duration                       : 1 h 29 min
Bit rate                       : 96.0 kb/s
Channel(s)                     : 2 channels
Channel layout                 : L R
Sampling rate                  : 44.1 kHz
Frame rate                     : 43.066 FPS (1024 SPF)
Compression mode               : Lossy
Delay relative to video        : 14 s 335 ms
Stream size                    : 61.8 MiB (9%)
Title                          : GOPI SAHI
Language                       : Hindi
Default                        : Yes
Forced                         : No

Audio #2
ID                             : 3
Format                         : AAC LC
Format/Info                    : Advanced Audio Codec Low Complexity
Codec ID                       : A_AAC-2
Duration                       : 1 h 30 min
Bit rate                       : 96.0 kb/s
Channel(s)                     : 2 channels
Channel layout                 : L R
Sampling rate                  : 48.0 kHz
Frame rate                     : 46.875 FPS (1024 SPF)
Compression mode               : Lossy
Delay relative to video        : -126 ms
Stream size                    : 62.2 MiB (9%)
Title                          : GOPI SAHI
Language                       : English
Default                        : No
Forced                         : No

Text
ID                             : 4
Format                         : UTF-8
Codec ID                       : S_TEXT/UTF8
Codec ID/Info                  : UTF-8 Plain Text
Duration                       : 1 h 16 min
Bit rate                       : 35 b/s
Count of elements              : 723
Stream size                    : 20.1 KiB (0%)
Title                          : GOPI SAHI
Language                       : English





Post a Comment

0 Comments