Catch Me If You Can 2002 x264 720p Esub BluRay Dual Audio English Hindi GOPI SAHI

Catch Me If You Can (2002)

A seasoned FBI agent pursues Frank Abagnale Jr. who, before his 19th birthday, successfully forged millions of dollars' worth of checks while posing as a Pan Am pilot, a doctor, and a legal prosecutor.
EN

Director:

Steven Spielberg

Writers:

Jeff Nathanson (screenplay), Frank Abagnale Jr. (book) (as Frank W. Abagnale) | 1 more credit »
8.1/10



Directed bySteven Spielberg
Produced by
Screenplay byJeff Nathanson
Based onCatch Me If You Can
by Frank Abagnale Jr.
Stan Redding
Starring
Music byJohn Williams
CinematographyJanusz Kamiński
Edited byMichael Kahn
Production
companies
Distributed byDreamWorks Pictures
Release date
  • December 18, 2002 (Westwood)
  • December 25, 2002 (United States)
Running time
141 minutes[1]
CountryUnited States
LanguageEnglish
Budget$52 million
Box office$352.1 million


Format                         : Matroska
Format version                 : Version 4
File size                      : 1.09 GiB
Duration                       : 2 h 21 min
Overall bit rate               : 1 100 kb/s
Movie name                     : Catch Me If You Can 2002 GOPI SAHI
Encoded date                   : UTC 2020-08-28 14:31:50

Video
ID                             : 1
Format                         : AVC
Format/Info                    : Advanced Video Codec
Format profile                 : [email protected]1
Format settings                : CABAC / 5 Ref Frames
Format settings, CABAC         : Yes
Format settings, Reference fra : 5 frames
Codec ID                       : V_MPEG4/ISO/AVC
Duration                       : 2 h 20 min
Bit rate                       : 899 kb/s
Width                          : 1 280 pixels
Height                         : 690 pixels
Display aspect ratio           : 1.85:1
Frame rate mode                : Constant
Frame rate                     : 23.976 (24000/1001) FPS
Color space                    : YUV
Chroma subsampling             : 4:2:0
Bit depth                      : 8 bits
Scan type                      : Progressive
Bits/(Pixel*Frame)             : 0.042
Stream size                    : 905 MiB (81%)
Title                          : GOPI SAHI
Writing library                : x264 core 157 r2935 545de2f

Audio #1
ID                             : 2
Format                         : AAC LC
Format/Info                    : Advanced Audio Codec Low Complexity
Codec ID                       : A_AAC-2
Duration                       : 2 h 21 min
Bit rate                       : 96.0 kb/s
Channel(s)                     : 2 channels
Channel layout                 : L R
Sampling rate                  : 48.0 kHz
Frame rate                     : 46.875 FPS (1024 SPF)
Compression mode               : Lossy
Delay relative to video        : 2 s 137 ms
Stream size                    : 97.0 MiB (9%)
Title                          : GOPI SAHI
Language                       : Hindi
Default                        : Yes
Forced                         : No

Audio #2
ID                             : 3
Format                         : AAC LC
Format/Info                    : Advanced Audio Codec Low Complexity
Codec ID                       : A_AAC-2
Duration                       : 2 h 20 min
Bit rate                       : 96.0 kb/s
Channel(s)                     : 2 channels
Channel layout                 : L R
Sampling rate                  : 48.0 kHz
Frame rate                     : 46.875 FPS (1024 SPF)
Compression mode               : Lossy
Delay relative to video        : -21 ms
Stream size                    : 96.9 MiB (9%)
Title                          : GOPI SAHI
Language                       : English
Default                        : No
Forced                         : No

Text #1
ID                             : 4
Format                         : PGS
Muxing mode                    : zlib
Codec ID                       : S_HDMV/PGS
Codec ID/Info                  : Picture based subtitle format used on BDs/HD-DVDs
Duration                       : 2 h 17 min
Bit rate                       : 947 b/s
Count of elements              : 144
Stream size                    : 953 KiB (0%)
Title                          : GOPI SAHI
Language                       : Hindi
Default                        : No
Forced                         : No

Text #2
ID                             : 5
Format                         : PGS
Muxing mode                    : zlib
Codec ID                       : S_HDMV/PGS
Codec ID/Info                  : Picture based subtitle format used on BDs/HD-DVDs
Duration                       : 2 h 12 min
Bit rate                       : 41.3 kb/s
Count of elements              : 3514
Stream size                    : 39.0 MiB (4%)
Title                          : GOPI SAHI
Language                       : English
Default                        : No
Forced                         : No




Post a Comment

0 Comments