Instant Family 2018 x264 720p Esub BluRay Dual Audio English Hindi GOPI SAHI

Instant Family (2018)

PG-13 | | Comedy, Drama | 16 November 2018 (USA) 
A couple find themselves in over their heads when they foster three children.
EN

Director:

Sean Anders
7.3/10
76,517

Directed bySean Anders
Produced by
Written by
  • Sean Anders
  • John Morris
Starring
Music byMichael Andrews
CinematographyBrett Pawlak
Edited byBrad Wilhite
Production
company
Leverage Entertainment
Distributed byParamount Pictures[1]
Release date
  • November 16, 2018
Running time
118 minutes
CountryUnited States
LanguageEnglish
Budget$48 million[2]
Box office$120.6 million[2]


Format                         : Matroska
Format version                 : Version 4
File size                      : 1.00 GiB
Duration                       : 1 h 58 min
Overall bit rate               : 1 207 kb/s
Movie name                     : Instant Family 2018 GOPI SAHI
Encoded date                   : UTC 2020-08-28 07:09:58
Writing application            : mkvmerge v46.0.0 ('No Deeper Escape') 32-bit
Writing library                : libebml v1.3.10 + libmatroska v1.5.2
Attachments                    : Hammer Logo.jpg

Video
ID                             : 1
Format                         : AVC
Format/Info                    : Advanced Video Codec
Format profile                 : [email protected]
Format settings                : CABAC / 5 Ref Frames
Format settings, CABAC         : Yes
Format settings, Reference fra : 5 frames
Codec ID                       : V_MPEG4/ISO/AVC
Duration                       : 1 h 58 min
Bit rate                       : 899 kb/s
Width                          : 1 280 pixels
Height                         : 534 pixels
Display aspect ratio           : 2.40:1
Frame rate mode                : Constant
Frame rate                     : 23.976 (24000/1001) FPS
Color space                    : YUV
Chroma subsampling             : 4:2:0
Bit depth                      : 8 bits
Scan type                      : Progressive
Bits/(Pixel*Frame)             : 0.055
Stream size                    : 759 MiB (74%)
Title                          : GOPI SAHI
Writing library                : x264 core 157 r2935 545de2f

Audio #1
ID                             : 2
Format                         : AAC LC
Format/Info                    : Advanced Audio Codec Low Complexity
Codec ID                       : A_AAC-2
Duration                       : 1 h 58 min
Bit rate                       : 96.0 kb/s
Channel(s)                     : 2 channels
Channel layout                 : L R
Sampling rate                  : 48.0 kHz
Frame rate                     : 46.875 FPS (1024 SPF)
Compression mode               : Lossy
Delay relative to video        : 9 ms
Stream size                    : 81.3 MiB (8%)
Title                          : GOPI SAHI
Language                       : Hindi
Default                        : Yes
Forced                         : No

Audio #2
ID                             : 3
Format                         : AAC LC
Format/Info                    : Advanced Audio Codec Low Complexity
Codec ID                       : A_AAC-2
Duration                       : 1 h 58 min
Bit rate                       : 96.0 kb/s
Channel(s)                     : 2 channels
Channel layout                 : L R
Sampling rate                  : 48.0 kHz
Frame rate                     : 46.875 FPS (1024 SPF)
Compression mode               : Lossy
Delay relative to video        : -21 ms
Stream size                    : 81.3 MiB (8%)
Title                          : GOPI SAHI
Language                       : English
Default                        : No
Forced                         : No

Text #1
ID                             : 4
Format                         : PGS
Muxing mode                    : zlib
Codec ID                       : S_HDMV/PGS
Codec ID/Info                  : Picture based subtitle format used on BDs/HD-DVDs
Duration                       : 1 h 52 min
Bit rate                       : 93.1 kb/s
Count of elements              : 4484
Stream size                    : 74.8 MiB (7%)
Title                          : GOPI SAHI
Language                       : English
Default                        : Yes
Forced                         : No

Text #2
ID                             : 5
Format                         : PGS
Muxing mode                    : zlib
Codec ID                       : S_HDMV/PGS
Codec ID/Info                  : Picture based subtitle format used on BDs/HD-DVDs
Duration                       : 1 h 57 min
Bit rate                       : 93.5 kb/s
Count of elements              : 4730
Stream size                    : 78.6 MiB (8%)
Title                          : GOPI SAHI
Language                       : English
Default                        : No
Forced                         : No

Text #3
ID                             : 6
Format                         : PGS
Muxing mode                    : zlib
Codec ID                       : S_HDMV/PGS
Codec ID/Info                  : Picture based subtitle format used on BDs/HD-DVDs
Duration                       : 1 h 57 min
Bit rate                       : 94.0 kb/s
Count of elements              : 4732
Stream size                    : 79.1 MiB (8%)
Title                          : GOPI SAHI
Language                       : English
Default                        : No
Forced                         : No






Post a Comment

0 Comments