Jaan To Pyara 2020 X264 720P Esub Amazone Punjabi GOPI SAHI

Jaan To Pyara (2020)

Jaan to Pyara (original title)
UA | | Family | 3 January 2020 (India)

EN

Writer:

Yash Raj Dhiman


Format                         : Matroska
Format version                 : Version 4
File size                      : 965 MiB
Duration                       : 2 h 15 min
Overall bit rate               : 998 kb/s
Movie name                     : Jaan to Pyara 2020 GOPI SAHI
Encoded date                   : UTC 2020-08-02 09:02:52


Video
ID                             : 1
Format                         : AVC
Format/Info                    : Advanced Video Codec
Format profile                 : [email protected]
Format settings                : CABAC / 5 Ref Frames
Format settings, CABAC         : Yes
Format settings, Reference fra : 5 frames
Codec ID                       : V_MPEG4/ISO/AVC
Duration                       : 2 h 15 min
Bit rate                       : 899 kb/s
Width                          : 1 280 pixels
Height                         : 538 pixels
Display aspect ratio           : 2.40:1
Frame rate mode                : Constant
Frame rate                     : 24.000 FPS
Color space                    : YUV
Chroma subsampling             : 4:2:0
Bit depth                      : 8 bits
Scan type                      : Progressive
Bits/(Pixel*Frame)             : 0.054
Stream size                    : 870 MiB (90%)
Title                          : GOPI SAHI
Writing library                : x264 core 157 r2935 545de2f

Audio
ID                             : 2
Format                         : AAC LC
Duration                       : 2 h 15 min
Bit rate                       : 96.0 kb/s
Channel(s)                     : 2 channels
Channel layout                 : L R
Sampling rate                  : 48.0 kHz
Frame rate                     : 46.875 FPS (1024 SPF)
Compression mode               : Lossy
Delay relative to video        : -21 ms
Stream size                    : 93.2 MiB (10%)
Title                          : GOPI SAHI
Language                       : Panjabi

Text
Language                       : English







Post a Comment

0 Comments