Wake Of Death 2004 x264 720p Esub NetFLix Dual Audio Hindi English GOPI SAHI

Wake of Death (2004)


After his wife is brutally murdered, club enforcer Ben Archer wages war against the Chinese triads.
EN

Director:

Philippe Martinez
5.7/10


Directed byPhilippe Martínez
Produced byAlan Latham
Philippe Martínez
Stéphanie Martínez
Stanley Roup
Written byPhilippe Martínez
Mick Davis
Laurent Fellous
Kristina Hamilton-Grobler
StarringJean-Claude van Damme
Simon Yam
Lisa King
Valerie Tian
Tony Schiena
Music byGuy Farley
CinematographyEmmanuel Kadosh
Michael Swan
Edited byChristopher Robin Bell
Dedan Ouziel
Distributed byBauer-Martínez Studios
UKFS
Frame Werk Produktion GmbH & Co. KG
Release date
  • December 18, 2004 (US)
  • January 19, 2005 (France)
Running time
86 minutes
CountryUnited States
LanguageEnglish
Budget$14,000,000




Wake Of Death 2004 x264 720p Esub NetFLix Dual Audio Hindi English GOPI SAHI


Format                         : Matroska
Format version                 : Version 4
File size                      : 710 MiB
Duration                       : 1 h 30 min
Overall bit rate               : 1 096 kb/s
Movie name                     : Wake Of Death 2004 GOPI SAHI
Encoded date                   : UTC 2020-08-14 08:09:14

Video
ID                             : 1
Format                         : AVC
Format/Info                    : Advanced Video Codec
Format profile                 : [email protected]
Format settings                : CABAC / 5 Ref Frames
Format settings, CABAC         : Yes
Format settings, Reference fra : 5 frames
Codec ID                       : V_MPEG4/ISO/AVC
Duration                       : 1 h 30 min
Bit rate                       : 899 kb/s
Width                          : 1 280 pixels
Height                         : 720 pixels
Display aspect ratio           : 16:9
Frame rate mode                : Constant
Frame rate                     : 23.976 (24000/1001) FPS
Color space                    : YUV
Chroma subsampling             : 4:2:0
Bit depth                      : 8 bits
Scan type                      : Progressive
Bits/(Pixel*Frame)             : 0.041
Stream size                    : 582 MiB (82%)
Title                          : GOPI SAHI
Writing library                : x264 core 157 r2935 545de2f

Audio #1
ID                             : 2
Format                         : AAC LC
Format/Info                    : Advanced Audio Codec Low Complexity
Codec ID                       : A_AAC-2
Duration                       : 1 h 30 min
Bit rate                       : 96.0 kb/s
Channel(s)                     : 2 channels
Channel layout                 : L R
Sampling rate                  : 48.0 kHz
Frame rate                     : 46.875 FPS (1024 SPF)
Compression mode               : Lossy
Delay relative to video        : -21 ms
Stream size                    : 62.4 MiB (9%)
Title                          : GOPI SAHI
Language                       : Hindi
Default                        : Yes
Forced                         : No

Audio #2
ID                             : 3
Format                         : AAC LC
Format/Info                    : Advanced Audio Codec Low Complexity
Codec ID                       : A_AAC-2
Duration                       : 1 h 30 min
Bit rate                       : 96.0 kb/s
Channel(s)                     : 2 channels
Channel layout                 : L R
Sampling rate                  : 48.0 kHz
Frame rate                     : 46.875 FPS (1024 SPF)
Compression mode               : Lossy
Delay relative to video        : -21 ms
Stream size                    : 62.4 MiB (9%)
Title                          : GOPI SAHI
Language                       : English
Default                        : No
Forced                         : No

Text
ID                             : 4
Format                         : PGS
Muxing mode                    : zlib
Codec ID                       : S_HDMV/PGS
Codec ID/Info                  : Picture based subtitle format used on BDs/HD-DVDs
Duration                       : 1 h 24 min
Bit rate                       : 9 506 b/s
Count of elements              : 776
Stream size                    : 5.72 MiB (1%)
Title                          : GOPI SAHI
Language                       : English
Default                        : Yes
Forced                         : No







Post a Comment

0 Comments