40 Days and 40 Nights 2002 x264 720p Esub BluRay Dual Audio English Hindi GOPI SAHI

40 Days and 40 Nights (2002)

 
After a brutal break-up, a young man vows to stay celibate during the forty days of Lent, but finds the girl of his dreams and is unable to do anything about it.
EN

Director:

Michael Lehmann

Writer:

Rob Perez (as Robert Perez)

5.6/10
69,652

Directed byMichael Lehmann
Produced byTim Bevan
Eric Fellner
Michael London
Written byRobert Perez
Starring
Music byRolfe Kent
CinematographyElliot Davis
Edited byNicholas C. Smith
Production
company
Distributed by
Release date
  • March 1, 2002
Running time
96 minutes
CountryUnited States
United Kingdom
France
LanguageEnglish
Budget$17 million[1]
Box office$95.1 million[1]




40 Days and 40 Nights 2002 x264 720p Esub BluRay Dual Audio English Hindi GOPI SAHI

Format                         : Matroska
Format version                 : Version 4
File size                      : 758 MiB
Duration                       : 1 h 35 min
Overall bit rate               : 1 110 kb/s
Movie name                     : 40 Days and 40 Nights 2002 GOPI SAHI
Encoded date                   : UTC 2020-09-02 09:35:58

Video
ID                             : 1
Format                         : AVC
Format/Info                    : Advanced Video Codec
Format profile                 : [email protected]
Format settings                : CABAC / 5 Ref Frames
Format settings, CABAC         : Yes
Format settings, Reference fra : 5 frames
Codec ID                       : V_MPEG4/ISO/AVC
Duration                       : 1 h 35 min
Bit rate                       : 899 kb/s
Width                          : 1 280 pixels
Height                         : 694 pixels
Display aspect ratio           : 1.85:1
Frame rate mode                : Constant
Frame rate                     : 23.976 (24000/1001) FPS
Color space                    : YUV
Chroma subsampling             : 4:2:0
Bit depth                      : 8 bits
Scan type                      : Progressive
Bits/(Pixel*Frame)             : 0.042
Stream size                    : 613 MiB (81%)
Title                          : GOPI SAHI
Writing library                : x264 core 157 r2935 545de2f

Audio #1
ID                             : 2
Format                         : AAC LC
Format/Info                    : Advanced Audio Codec Low Complexity
Codec ID                       : A_AAC-2
Duration                       : 1 h 35 min
Bit rate                       : 96.0 kb/s
Channel(s)                     : 2 channels
Channel layout                 : L R
Sampling rate                  : 48.0 kHz
Frame rate                     : 46.875 FPS (1024 SPF)
Compression mode               : Lossy
Delay relative to video        : 5 s 159 ms
Stream size                    : 65.5 MiB (9%)
Title                          : GOPI SAHI
Language                       : Hindi
Default                        : Yes
Forced                         : No

Audio #2
ID                             : 3
Format                         : AAC LC
Format/Info                    : Advanced Audio Codec Low Complexity
Codec ID                       : A_AAC-2
Duration                       : 1 h 35 min
Bit rate                       : 96.0 kb/s
Channel(s)                     : 2 channels
Channel layout                 : L R
Sampling rate                  : 48.0 kHz
Frame rate                     : 46.875 FPS (1024 SPF)
Compression mode               : Lossy
Delay relative to video        : -21 ms
Stream size                    : 65.6 MiB (9%)
Title                          : GOPI SAHI
Language                       : English
Default                        : No
Forced                         : No

Text #1
ID                             : 4
Format                         : PGS
Muxing mode                    : zlib
Codec ID                       : S_HDMV/PGS
Codec ID/Info                  : Picture based subtitle format used on BDs/HD-DVDs
Duration                       : 1 h 31 min
Bit rate                       : 522 b/s
Count of elements              : 72
Stream size                    : 351 KiB (0%)
Title                          : GOPI SAHI
Language                       : Hindi
Default                        : Yes
Forced                         : Yes

Text #2
ID                             : 5
Format                         : PGS
Muxing mode                    : zlib
Codec ID                       : S_HDMV/PGS
Codec ID/Info                  : Picture based subtitle format used on BDs/HD-DVDs
Duration                       : 1 h 29 min
Bit rate                       : 52.4 kb/s
Count of elements              : 2159
Stream size                    : 33.4 MiB (4%)
Title                          : GOPI SAHI
Language                       : English
Default                        : No
Forced                         : No

Menu
00:00:00.000                   : :Chapter 1
00:06:58.335                   : :Chapter 2
00:15:03.736                   : :Chapter 3
00:22:57.042                   : :Chapter 4
00:30:20.569                   : :Chapter 5
00:37:41.134                   : :Chapter 6
00:44:38.968                   : :Chapter 7
00:52:40.324                   : :Chapter 8
00:59:31.443                   : :Chapter 9
01:09:30.416                   : :Chapter 10
01:14:32.927                   : :Chapter 11
01:24:25.227                   : :Chapter 12




Post a Comment

0 Comments