A Nightmare on Elm Street 1984 x264 720p Esub BluRay Dual Audio English Hindi GOPI SAHI

A Nightmare on Elm Street (1984)

TV-14 | | Horror | 16 November 1984 (USA) 
 
The monstrous spirit of a slain child murderer seeks revenge by invading the dreams of teenagers whose parents were responsible for his untimely death.
EN

Director:

Wes Craven

Writer:

Wes Craven

7.5/10
200,646

Directed byWes Craven
Produced byRobert Shaye
Written byWes Craven
Starring
Music byCharles Bernstein
CinematographyJacques Haitkin
Edited by
  • Patrick McMahon
  • Rick Shaine
Production
companies
Distributed byNew Line Cinema
Release date
  • November 9, 1984 (United States)
Running time
91 minutes[2]
CountryUnited States
LanguageEnglish
Budget$1.8 million[3]
Box office$57 million[4][5]

A Nightmare on Elm Street 1984 GOPI SAHI

Format                         : Matroska
Format version                 : Version 4
File size                      : 723 MiB
Duration                       : 1 h 31 min
Overall bit rate               : 1 108 kb/s
Movie name                     : A Nightmare on Elm Street 1984 GOPI SAHI
Encoded date                   : UTC 2020-09-15 06:35:10

Video
ID                             : 1
Format                         : AVC
Format/Info                    : Advanced Video Codec
Format profile                 : [email protected]
Format settings                : CABAC / 5 Ref Frames
Format settings, CABAC         : Yes
Format settings, Reference fra : 5 frames
Codec ID                       : V_MPEG4/ISO/AVC
Duration                       : 1 h 31 min
Bit rate                       : 899 kb/s
Width                          : 1 280 pixels
Height                         : 720 pixels
Display aspect ratio           : 16:9
Frame rate mode                : Constant
Frame rate                     : 23.976 (24000/1001) FPS
Color space                    : YUV
Chroma subsampling             : 4:2:0
Bit depth                      : 8 bits
Scan type                      : Progressive
Bits/(Pixel*Frame)             : 0.041
Stream size                    : 586 MiB (81%)
Title                          : GOPI SAHI
Writing library                : x264 core 157 r2935 545de2f

Audio #1
ID                             : 2
Format                         : AAC LC
Format/Info                    : Advanced Audio Codec Low Complexity
Codec ID                       : A_AAC-2
Duration                       : 1 h 31 min
Bit rate                       : 96.0 kb/s
Channel(s)                     : 2 channels
Channel layout                 : L R
Sampling rate                  : 48.0 kHz
Frame rate                     : 46.875 FPS (1024 SPF)
Compression mode               : Lossy
Delay relative to video        : -21 ms
Stream size                    : 62.9 MiB (9%)
Title                          : GOPI SAHI
Language                       : Hindi
Default                        : Yes
Forced                         : No

Audio #2
ID                             : 3
Format                         : AAC LC
Format/Info                    : Advanced Audio Codec Low Complexity
Codec ID                       : A_AAC-2
Duration                       : 1 h 31 min
Bit rate                       : 96.0 kb/s
Channel(s)                     : 2 channels
Channel layout                 : L R
Sampling rate                  : 48.0 kHz
Frame rate                     : 46.875 FPS (1024 SPF)
Compression mode               : Lossy
Delay relative to video        : 1 ms
Stream size                    : 62.9 MiB (9%)
Title                          : GOPI SAHI
Language                       : English
Default                        : No
Forced                         : No

Text #1
ID                             : 4
Format                         : PGS
Muxing mode                    : zlib
Codec ID                       : S_HDMV/PGS
Codec ID/Info                  : Picture based subtitle format used on BDs/HD-DVDs
Duration                       : 1 h 30 min
Bit rate                       : 24.8 kb/s
Count of elements              : 1894
Stream size                    : 16.1 MiB (2%)
Title                          : GOPI SAHI
Language                       : English
Default                        : Yes
Forced                         : Yes

Text #2
ID                             : 5
Format                         : PGS
Muxing mode                    : zlib
Codec ID                       : S_HDMV/PGS
Codec ID/Info                  : Picture based subtitle format used on BDs/HD-DVDs
Duration                       : 1 h 30 min
Bit rate                       : 6 718 b/s
Count of elements              : 318
Stream size                    : 4.36 MiB (1%)
Title                          : GOPI SAHI
Language                       : English
Default                        : No
Forced                         : No

Menu
00:00:00.000                   : :Opening Titles / Meet the Glove
00:03:35.716                   : :You Gotta Stop That Kind of Dreaming
00:05:51.476                   : :"I'm So Glad You Guys Could Come Over Tonight"
00:08:11.199                   : :"There's Something Out There"
00:10:44.185                   : :The Call of the Wind
00:14:48.304                   : :A Bloody Mess
00:18:26.897                   : :"She Didn't Want to Sleep Alone"
00:20:27.643                   : :Captured
00:23:06.427                   : :Hamlet Hijack
00:29:27.641                   : :Rod Sings
00:31:40.065                   : :Splash
00:34:23.061                   : :Guarding Nancy
00:37:03.471                   : :Feather Bed
00:43:13.591                   : :Hung Up
00:47:29.221                   : :The Hat Comes Back
00:51:29.962                   : :"You're Dead"
00:56:19.668                   : :"Mommy Killed Him"
00:58:51.778                   : :"Midnight, Baseball Bats, and Boogeymen"
01:02:59.859                   : :No Way Out
01:08:02.537                   : :It's A Gusher
01:11:49.764                   : :Survivalist
01:15:34.697                   : :Finding Freddy
01:21:04.902                   : :Fight Fire with Fire
01:25:26.246                   : :"You're Shit"
01:29:06.758                   : :End Credits