Anchorman 2- The Legend Continues 2013 x264 720p Esub BluRay Dual Audio English Hindi GOPI SAHI

Anchorman 2: The Legend Continues (2013)



PG-13 | | Comedy | 18 December 2013 (USA)

With the 1970s behind them, San Diego's top-rated newsman, Ron Burgundy, returns to take New York City's first twenty-four-hour news channel by storm.
EN

Director:

Adam McKay

6.3/10
166,094

Directed byAdam McKay
Produced by
Written by
  • Will Ferrell
  • Adam McKay
Starring
Music by
  • Andrew Feltenstein
  • John Nau
CinematographyOliver Wood
Edited by
Production
company
Distributed byParamount Pictures
Release date
  • November 24, 2013 (Australia)
  • December 18, 2013 (United States)
Running time
119 minutes[1]
CountryUnited States
LanguageEnglish
Budget$50 million[2]
Box office$173.6 million[3]


Anchorman 2- The Legend Continues 2013 GOPI SAHI

Format                         : Matroska
Format version                 : Version 4
File size                      : 898 MiB
Duration                       : 1 h 53 min
Overall bit rate               : 1 103 kb/s
Movie name                     : Anchorman 2: The Legend Continues 2013 GOPI SAHI
Encoded date                   : UTC 2020-09-24 07:56:53

Video
ID                             : 1
Format                         : AVC
Format/Info                    : Advanced Video Codec
Format profile                 : [email protected]
Format settings                : CABAC / 5 Ref Frames
Format settings, CABAC         : Yes
Format settings, Reference fra : 5 frames
Codec ID                       : V_MPEG4/ISO/AVC
Duration                       : 1 h 52 min
Bit rate                       : 899 kb/s
Width                          : 1 280 pixels
Height                         : 534 pixels
Display aspect ratio           : 2.40:1
Frame rate mode                : Constant
Frame rate                     : 23.976 (24000/1001) FPS
Color space                    : YUV
Chroma subsampling             : 4:2:0
Bit depth                      : 8 bits
Scan type                      : Progressive
Bits/(Pixel*Frame)             : 0.055
Stream size                    : 726 MiB (81%)
Title                          : GOPI SAHI
Writing library                : x264 core 157 r2935 545de2f

Audio #1
ID                             : 2
Format                         : AAC LC
Format/Info                    : Advanced Audio Codec Low Complexity
Codec ID                       : A_AAC-2
Duration                       : 1 h 53 min
Bit rate                       : 96.0 kb/s
Channel(s)                     : 2 channels
Channel layout                 : L R
Sampling rate                  : 48.0 kHz
Frame rate                     : 46.875 FPS (1024 SPF)
Compression mode               : Lossy
Delay relative to video        : 10 ms
Stream size                    : 77.9 MiB (9%)
Title                          : GOPI SAHI
Language                       : Hindi
Default                        : Yes
Forced                         : No

Audio #2
ID                             : 3
Format                         : AAC LC
Format/Info                    : Advanced Audio Codec Low Complexity
Codec ID                       : A_AAC-2
Duration                       : 1 h 52 min
Bit rate                       : 96.0 kb/s
Channel(s)                     : 2 channels
Channel layout                 : L R
Sampling rate                  : 48.0 kHz
Frame rate                     : 46.875 FPS (1024 SPF)
Compression mode               : Lossy
Delay relative to video        : -21 ms
Stream size                    : 77.8 MiB (9%)
Title                          : GOPI SAHI
Language                       : English
Default                        : No
Forced                         : No

Text #1
ID                             : 4
Format                         : PGS
Muxing mode                    : zlib
Codec ID                       : S_HDMV/PGS
Codec ID/Info                  : Picture based subtitle format used on BDs/HD-DVDs
Duration                       : 1 h 44 min
Bit rate                       : 373 b/s
Count of elements              : 40
Stream size                    : 286 KiB (0%)
Title                          : GOPI SAHI
Language                       : Hindi
Default                        : Yes
Forced                         : Yes

Text #2
ID                             : 5
Format                         : PGS
Muxing mode                    : zlib
Codec ID                       : S_HDMV/PGS
Codec ID/Info                  : Picture based subtitle format used on BDs/HD-DVDs
Duration                       : 1 h 51 min
Bit rate                       : 53.1 kb/s
Count of elements              : 4082
Stream size                    : 42.4 MiB (5%)
Title                          : GOPI SAHI
Language                       : English
Default                        : No
Forced                         : No

Menu
00:00:00.000                   : :Chapter 1
00:08:05.193                   : :Chapter 2
00:13:03.032                   : :Chapter 3
00:18:21.851                   : :Chapter 4
00:23:37.583                   : :Chapter 5
00:31:31.431                   : :Chapter 6
00:35:21.745                   : :Chapter 7
00:39:44.883                   : :Chapter 8
00:44:28.791                   : :Chapter 9
00:49:56.368                   : :Chapter 10
00:54:22.885                   : :Chapter 11
01:00:06.394                   : :Chapter 12
01:07:31.339                   : :Chapter 13
01:11:58.272                   : :Chapter 14
01:18:04.471                   : :Chapter 15
01:23:14.281                   : :Chapter 16
01:27:40.005                   : :Chapter 17
01:35:15.877                   : :Chapter 18
01:40:17.929                   : :Chapter 19
01:47:05.336                   : :Chapter 20




Post a Comment

0 Comments