Bounty Hunters 2016 x264 720p Esub AmaZoNe Dual Audio Hindi English Telugu Tamil GOPI SAHI

Bounty Hunters (2016)

Shang jin lie ren (original title)
PG-13 | | Action, Comedy, Romance | 2016 (China)
It is the story of five bounty hunters who chase fugitives for money in China, Hong Kong, Korea and Thailand.
EN

Director:

Tae-ra Shin

Writer:

Edmond Wong

5.3/10
707
Simplified赏金猎人
MandarinShǎngjīnlièrén
Hangul바운티 헌터스
Directed byShin Terra
StarringLee Min-ho
Wallace Chung
Tiffany Tang
Jeremy Tsui
Karena Ng
Louis Fan
Music byChoi Seung-hyun
Production
companies
Shanghai Mingyi Media
Union Investment Partners
Shanghai Xinyi Media
Le Vision Pictures (Beijing)
Le Vision Pictures (Hong Kong)
Tianma Yinglian Entertainment (Beijing)
Pegasus Motion Pictures Limited[1]
Distributed byLe Vision Pictures (Beijing)[1]
Release date
  • July 1, 2016 (China)
Running time
105 minutes
CountryChina
South Korea
Hong Kong
LanguageMandarin
Korean[2]
Box officeUS$31.1 million




Bounty Hunters 2016 x264 720p Esub AmaZoNe Dual Audio Hindi English Telugu Tamil GOPI SAHI

Format                         : Matroska
Format version                 : Version 4
File size                      : 973 MiB
Duration                       : 1 h 45 min
Overall bit rate               : 1 289 kb/s
Movie name                     : Bounty Hunters 2016 GOPI SAHI
Encoded date                   : UTC 2020-09-23 13:42:36

Video
ID                             : 1
Format                         : AVC
Format/Info                    : Advanced Video Codec
Format profile                 : [email protected]
Format settings                : CABAC / 5 Ref Frames
Format settings, CABAC         : Yes
Format settings, Reference fra : 5 frames
Codec ID                       : V_MPEG4/ISO/AVC
Duration                       : 1 h 45 min
Bit rate                       : 899 kb/s
Width                          : 1 280 pixels
Height                         : 534 pixels
Display aspect ratio           : 2.40:1
Frame rate mode                : Constant
Frame rate                     : 25.000 FPS
Color space                    : YUV
Chroma subsampling             : 4:2:0
Bit depth                      : 8 bits
Scan type                      : Progressive
Bits/(Pixel*Frame)             : 0.053
Stream size                    : 678 MiB (70%)
Title                          : GOPI SAHI
Writing library                : x264 core 157 r2935 545de2f

Audio #1
ID                             : 2
Format                         : AAC LC
Format/Info                    : Advanced Audio Codec Low Complexity
Codec ID                       : A_AAC-2
Duration                       : 1 h 45 min
Bit rate                       : 96.0 kb/s
Channel(s)                     : 2 channels
Channel layout                 : L R
Sampling rate                  : 48.0 kHz
Frame rate                     : 46.875 FPS (1024 SPF)
Compression mode               : Lossy
Delay relative to video        : -21 ms
Stream size                    : 72.8 MiB (7%)
Title                          : GOPI SAHI
Language                       : Hindi
Default                        : Yes
Forced                         : No

Audio #2
ID                             : 3
Format                         : AAC LC
Format/Info                    : Advanced Audio Codec Low Complexity
Codec ID                       : A_AAC-2
Duration                       : 1 h 45 min
Bit rate                       : 96.0 kb/s
Channel(s)                     : 2 channels
Channel layout                 : L R
Sampling rate                  : 48.0 kHz
Frame rate                     : 46.875 FPS (1024 SPF)
Compression mode               : Lossy
Delay relative to video        : -21 ms
Stream size                    : 72.8 MiB (7%)
Title                          : GOPI SAHI
Language                       : English
Default                        : No
Forced                         : No

Audio #3
ID                             : 4
Format                         : AAC LC
Format/Info                    : Advanced Audio Codec Low Complexity
Codec ID                       : A_AAC-2
Duration                       : 1 h 45 min
Bit rate                       : 96.0 kb/s
Channel(s)                     : 2 channels
Channel layout                 : L R
Sampling rate                  : 48.0 kHz
Frame rate                     : 46.875 FPS (1024 SPF)
Compression mode               : Lossy
Delay relative to video        : -21 ms
Stream size                    : 72.8 MiB (7%)
Title                          : GOPI SAHI
Language                       : Tamil
Default                        : No
Forced                         : No

Audio #4
ID                             : 5
Format                         : AAC LC
Format/Info                    : Advanced Audio Codec Low Complexity
Codec ID                       : A_AAC-2
Duration                       : 1 h 45 min
Bit rate                       : 96.0 kb/s
Channel(s)                     : 2 channels
Channel layout                 : L R
Sampling rate                  : 48.0 kHz
Frame rate                     : 46.875 FPS (1024 SPF)
Compression mode               : Lossy
Delay relative to video        : -21 ms
Stream size                    : 72.8 MiB (7%)
Title                          : GOPI SAHI
Language                       : Telugu
Default                        : No
Forced                         : No

Text
ID                             : 6
Format                         : UTF-8
Codec ID                       : S_TEXT/UTF8
Codec ID/Info                  : UTF-8 Plain Text
Duration                       : 1 h 36 min
Bit rate                       : 36 b/s
Count of elements              : 1049
Stream size                    : 25.8 KiB (0%)
Title                          : GOPI SAHI
Language                       : English
Default                        : Yes
Forced                         : No