Boy Erased 2018 x264 720p Esub BluRay Dual Audio English Hindi GOPI SAHI

Boy Erased (2018)


The son of a Baptist preacher unwillingly participates in a church-supported gay conversion program after being forcibly outed to his parents.
EN

Director:

Joel Edgerton

Writers:

Garrard Conley (based on the memoir Boy Erased by), Joel Edgerton (written for the screen by)
6.9/10


Directed byJoel Edgerton
Produced by
Screenplay by
  • Joel Edgerton
Based onBoy Erased: A Memoir
by Garrard Conley
Starring
Music by
  • Danny Bensi
  • Saunder Jurriaans
CinematographyEduard Grau
Edited byJay Rabinowitz
Production
company
Distributed byFocus Features
Release date
  • September 1, 2018 (Telluride)
  • November 2, 2018 (United States)
Running time
115 minutes
CountryUnited States
LanguageEnglish
Budget$11 million[1]
Box office$11.9 million[2]



Boy Erased 2018 x264 720p Esub BluRay Dual Audio English Hindi GOPI SAHI

Format                         : Matroska
Format version                 : Version 4
File size                      : 910 MiB
Duration                       : 1 h 55 min
Overall bit rate               : 1 104 kb/s
Movie name                     : Boy Erased 2018 GOPI SAHI
Encoded date                   : UTC 2020-09-28 02:27:53
Attachments                    : Hammer Logo.jpg

Video
ID                             : 1
Format                         : AVC
Format/Info                    : Advanced Video Codec
Format profile                 : [email protected]
Format settings                : CABAC / 5 Ref Frames
Format settings, CABAC         : Yes
Format settings, Reference fra : 5 frames
Codec ID                       : V_MPEG4/ISO/AVC
Duration                       : 1 h 55 min
Bit rate                       : 899 kb/s
Width                          : 1 280 pixels
Height                         : 690 pixels
Display aspect ratio           : 1.85:1
Frame rate mode                : Constant
Frame rate                     : 23.976 (24000/1001) FPS
Color space                    : YUV
Chroma subsampling             : 4:2:0
Bit depth                      : 8 bits
Scan type                      : Progressive
Bits/(Pixel*Frame)             : 0.042
Stream size                    : 741 MiB (81%)
Title                          : GOPI SAHI
Writing library                : x264 core 157 r2935 545de2f

Audio #1
ID                             : 2
Format                         : AAC LC
Format/Info                    : Advanced Audio Codec Low Complexity
Codec ID                       : A_AAC-2
Duration                       : 1 h 55 min
Bit rate                       : 96.0 kb/s
Channel(s)                     : 2 channels
Channel layout                 : L R
Sampling rate                  : 48.0 kHz
Frame rate                     : 46.875 FPS (1024 SPF)
Compression mode               : Lossy
Delay relative to video        : 106 ms
Stream size                    : 79.3 MiB (9%)
Title                          : GOPI SAHI
Language                       : Hindi
Default                        : Yes
Forced                         : No

Audio #2
ID                             : 3
Format                         : AAC LC
Format/Info                    : Advanced Audio Codec Low Complexity
Codec ID                       : A_AAC-2
Duration                       : 1 h 55 min
Bit rate                       : 96.0 kb/s
Channel(s)                     : 2 channels
Channel layout                 : L R
Sampling rate                  : 48.0 kHz
Frame rate                     : 46.875 FPS (1024 SPF)
Compression mode               : Lossy
Delay relative to video        : -21 ms
Stream size                    : 79.3 MiB (9%)
Title                          : GOPI SAHI
Language                       : English
Default                        : No
Forced                         : No

Text
ID                             : 4
Format                         : PGS
Muxing mode                    : zlib
Codec ID                       : S_HDMV/PGS
Codec ID/Info                  : Picture based subtitle format used on BDs/HD-DVDs
Duration                       : 1 h 45 min
Bit rate                       : 39.1 kb/s
Count of elements              : 2708
Stream size                    : 29.6 MiB (3%)
Title                          : GOPI SAHI
Language                       : English
Default                        : Yes
Forced                         : No




Post a Comment

0 Comments