Curse of Chucky 2013 x264 720p Esub NetFLix Dual Audio Hindi English GOPI SAHI

Curse of Chucky (2013)

After her mother's mysterious death, Nica begins to suspect that the talking, red-haired doll her visiting niece has been playing with may be the key to recent bloodshed and chaos.
EN

Director:

Don Mancini

Writers:

Don Mancini (characters), Don Mancini
5.6/10
33,549

Directed byDon Mancini
Produced byDavid Kirschner
Written byDon Mancini
Based onCharacters
by Don Mancini
Starring
Music byJoseph LoDuca
CinematographyMichael Marshall
Edited byJames Coblentz
Production
company
Distributed byUniversal Studios Home Entertainment
Release date
  • September 24, 2013
(VOD)
  • October 8, 2013
(DVD/Blu-ray)
Running time
96 minutes
CountryUnited States
LanguageEnglish
Budget$2.8 million[1]
Box office$3.8 million


Curse of Chucky 2013 x264 720p Esub NetFLix Dual Audio Hindi English GOPI SAHI

Format                         : Matroska
Format version                 : Version 4
File size                      : 741 MiB
Duration                       : 1 h 34 min
Overall bit rate               : 1 094 kb/s
Movie name                     : Curse of Chucky 2013 GOPI SAHI
Encoded date                   : UTC 2020-09-26 14:17:51

Video
ID                             : 1
Format                         : AVC
Format/Info                    : Advanced Video Codec
Format profile                 : [email protected]
Format settings                : CABAC / 5 Ref Frames
Format settings, CABAC         : Yes
Format settings, Reference fra : 5 frames
Codec ID                       : V_MPEG4/ISO/AVC
Duration                       : 1 h 34 min
Bit rate                       : 899 kb/s
Width                          : 1 280 pixels
Height                         : 720 pixels
Display aspect ratio           : 16:9
Frame rate mode                : Constant
Frame rate                     : 23.976 (24000/1001) FPS
Color space                    : YUV
Chroma subsampling             : 4:2:0
Bit depth                      : 8 bits
Scan type                      : Progressive
Bits/(Pixel*Frame)             : 0.041
Stream size                    : 609 MiB (82%)
Title                          : GOPI SAHI
Writing library                : x264 core 157 r2935 545de2f

Audio #1
ID                             : 2
Format                         : AAC LC
Format/Info                    : Advanced Audio Codec Low Complexity
Codec ID                       : A_AAC-2
Duration                       : 1 h 34 min
Bit rate                       : 96.0 kb/s
Channel(s)                     : 2 channels
Channel layout                 : L R
Sampling rate                  : 48.0 kHz
Frame rate                     : 46.875 FPS (1024 SPF)
Compression mode               : Lossy
Delay relative to video        : -21 ms
Stream size                    : 65.2 MiB (9%)
Title                          : GOPI SAHI
Language                       : Hindi
Default                        : Yes
Forced                         : No

Audio #2
ID                             : 3
Format                         : AAC LC
Format/Info                    : Advanced Audio Codec Low Complexity
Codec ID                       : A_AAC-2
Duration                       : 1 h 34 min
Bit rate                       : 96.0 kb/s
Channel(s)                     : 2 channels
Channel layout                 : L R
Sampling rate                  : 48.0 kHz
Frame rate                     : 46.875 FPS (1024 SPF)
Compression mode               : Lossy
Delay relative to video        : -21 ms
Stream size                    : 65.2 MiB (9%)
Title                          : GOPI SAHI
Language                       : English
Default                        : No
Forced                         : No

Text #1
ID                             : 4
Format                         : PGS
Muxing mode                    : zlib
Codec ID                       : S_HDMV/PGS
Codec ID/Info                  : Picture based subtitle format used on BDs/HD-DVDs
Duration                       : 1 h 33 min
Bit rate                       : 653 b/s
Count of elements              : 80
Stream size                    : 449 KiB (0%)
Title                          : GOPI SAHI
Language                       : Hindi
Default                        : Yes
Forced                         : Yes

Text #2
ID                             : 5
Format                         : UTF-8
Codec ID                       : S_TEXT/UTF8
Codec ID/Info                  : UTF-8 Plain Text
Duration                       : 1 h 30 min
Bit rate                       : 33 b/s
Count of elements              : 1401
Stream size                    : 22.4 KiB (0%)
Title                          : GOPI SAHI
Language                       : English
Default                        : No
Forced                         : No




Post a Comment

0 Comments